Evanescence - Видеография / Video Content (10 clips, 11 live) [Alternative, Nu Metal, Web-DL, 360p, 480p] 

Цитировать
Evanescence (Video Content)
Страна: USA
Жанр: Alternative
Источник: iTunes Store
Качество: WEB-DL
Формат: M4V
Видео кодек: AVC 2.1 (H.264)
Аудио кодек: AAC
Clips
01. Bring Me To Life
02. Going Under
03. My Immortal
04. Everybody's Fool
05. Call Me When You're Sober
06. Lithium
07. Sweet Sacrifice
08. Good Enough
09. What You Want
10. My Heart Is Broken NEW
Live
01. Haunted (Live)
02. Going Under (Live)
03. Taking Over Me (Live)
04. Everybody's Fool (Live)
05. Thoughtless (Live)
06. My Last Breath (Live)
07. Farther Away (Live)
08. Breathe No More (Live)
09. My Immortal (Live)
10. Bring Me To Life (Live)
11. Tourniquet (Live)
12. Imaginary (Live)
13. Whisper (Live)

Clips

01. Bring Me To Life

Видео: 1492 Кбит/сек, 640x336, 29,970 кадр/сек
Аудио: 256 Кбит/сек, 2 канала, 44,1 КГц

02. Going Under

Видео: 1577 Кбит/сек, 640x464, 29,970 кадр/сек
Аудио: 256 Кбит/сек, 2 канала, 44,1 КГц

03. My Immortal

Видео: 1521 Кбит/сек, 640x352 (16:9), 29,970 кадр/сек
Аудио: 256 Кбит/сек, 2 канала, 44,1 КГц

04. Everybody's Fool

Видео: 1513 Кбит/сек, 640x448, 29,970 кадр/сек
Аудио: 256 Кбит/сек, 2 канала, 44,1 КГц

05. Call Me When You're Sober

Видео: 1499 Кбит/сек, 640x464, 29,970 кадр/сек
Аудио: 256 Кбит/сек, 2 канала, 44,1 КГц

06. Lithium

Видео: 1524 Кбит/сек, 640x272, 29,970 кадр/сек
Аудио: 256 Кбит/сек, 2 канала, 44,1 КГц

07. Sweet Sacrifice

Видео: 1470 Кбит/сек, 640x256, 29,970 кадр/секhttp://post.rutracker.org/forum/posting.php
Аудио: 256 Кбит/сек, 2 канала, 44,1 КГц

08. Good Enough

Видео: 1491 Кбит/сек, 640x336, 29,970 кадр/сек
Аудио: 256 Кбит/сек, 2 канала, 44,1 КГц

09. What You Want

MediaInfo

Идентификатор кодека : M4V
Размер файла : 45,1 Мбайт
Продолжительность : 3 м. 44 с.
Общий поток : 1688 Кбит/сек
Название фильма : What You Want
Альбом : Videos
Часть/Положение : 1
Часть/Всего : 2
Дорожка/Положение : 9
Дорожка/Всего : 0
Исполнитель : Evanescence
Дата кодирования : UTC 2011-09-02 21:51:33
Дата пометки : UTC 2011-09-02 21:55:01
Библиотека кодирования : Apple QuickTime
Обложка : Yes
apID : lantis_tsukino@hotmail.com
cnID : 462995117
rtng : 0
atID : 42102393
geID : 1621
sfID : 143462
akID : 0
stik : 6
purd : 2011-09-12 11:24:22
xid : EMI:isrc:USWV41100024
flvr : 6:640x480LC-256
iTunMOVI : / / / / asset-info / / file-size / 47277485 / flavor / 6:640x480LC-256 / screen-format / widescreen / / /
Видео
Идентификатор : 1
Формат : AVC
Формат/Информация : Advanced Video Codec
Профиль формата : Baseline@L3.0
Параметр CABAC формата : Нет
Параметр ReFrames формата : 1 кадр
Идентификатор кодека : avc1
Идентификатор кодека/Информация : Advanced Video Coding
Продолжительность : 3 м. 44 с.
Битрейт : 1400 Кбит/сек
Ширина : 640 пикс.
Высота : 360 пикс.
Соотношение сторон : 16:9
Режим частоты кадров : Постоянный
Частота кадров : 25,000 кадр/сек
Цветовое пространство : YUV
Подвыборка цветности : 4:2:0
Битовая глубина : 8 бит
Тип развёртки : Прогрессивная
Бит/(Пиксели*Кадры) : 0.243
Размер потока : 37,4 Мбайт (83%)
Язык : English
Дата кодирования : UTC 2011-09-02 21:54:57
Дата пометки : UTC 2011-09-02 21:55:01
Основные цвета : BT.601-6 525, BT.1358 525, BT.1700 NTSC, SMPTE 170M
Характеристики трансфера : BT.709-5, BT.1361
Коэффициенты матрицы : BT.601-6 525, BT.1358 525, BT.1700 NTSC, SMPTE 170M
Аудио
Идентификатор : 2
Формат : AAC
Формат/Информация : Advanced Audio Codec
Профиль формата : LC
Идентификатор кодека : 40
Продолжительность : 3 м. 44 с.
Вид битрейта : Постоянный
Битрейт : 256 Кбит/сек
Каналы : 2 канала
Расположение каналов : Front: L R
Частота : 44,1 КГц
Метод сжатия : С потерями
Размер потока : 6,56 Мбайт (15%)
Язык : English
Дата кодирования : UTC 2011-09-02 21:54:57
Дата пометки : UTC 2011-09-02 21:55:01
Material_Duration : 224049
Material_StreamSize : 6876707
Меню
Идентификатор : 3
Язык : English
Дата кодирования : UTC 2011-09-02 21:55:01
Дата пометки : UTC 2011-09-02 21:55:01

10. My Heart Is Broken



MediaInfo

Формат : MPEG-4
Идентификатор кодека : M4V
Размер файла : 50,0 Мбайт
Продолжительность : 3 м. 47 с.
Общий поток : 1841 Кбит/сек
Название фильма : My Heart Is Broken
Альбом : Videos
Часть/Положение : 1
Часть/Всего : 2
Дорожка/Положение : 10
Дорожка/Всего : 0
Исполнитель : Evanescence
Дата кодирования : UTC 2012-01-12 19:08:18
Дата пометки : UTC 2012-01-12 19:08:20
Программа кодирования : Http://www.indetime.com
Обложка : Yes
apID : zhengp@gmail.com
cnID : 494918806
rtng : 0
atID : 101711723
geID : 1621
sfID : 143441
akID : 0
stik : 6
purd : 2012-01-26 12:11:09
xid : SonyBMG:isrc:USWV41100052
flvr : 6:640x480LC-256
iTunMOVI : / / / / asset-info / / file-size / 52469381 / flavor / 6:640x480LC-256 / screen-format / widescreen / / /
tvsn : 0
tves : 0
©url : http://www.indetime.com
©lyr : http://www.indetime.com
furl : http://www.indetime.com
aurl : http://www.indetime.com
surl : http://www.indetime.com
rurl : http://www.indetime.com
burl : http://www.indetime.com
purl : (Binary)
Видео
Идентификатор : 1
Формат : AVC
Формат/Информация : Advanced Video Codec
Профиль формата : Baseline@L3.0
Параметр CABAC формата : Нет
Параметр ReFrames формата : 1 кадр
Идентификатор кодека : avc1
Идентификатор кодека/Информация : Advanced Video Coding
Продолжительность : 3 м. 47 с.
Вид битрейта : Переменный
Битрейт : 1547 Кбит/сек
Ширина : 640 пикс.
Высота : 478 пикс.
Соотношение сторон : 16:9
Режим частоты кадров : Постоянный
Частота кадров : 23,976 кадр/сек
Цветовое пространство : YUV
Подвыборка цветности : 4:2:0
Битовая глубина : 8 бит
Тип развёртки : Прогрессивная
Бит/(Пиксели*Кадры) : 0.211
Размер потока : 42,0 Мбайт (84%)
Язык : English
Дата кодирования : UTC 2012-01-12 19:08:18
Дата пометки : UTC 2012-01-12 19:08:20
Основные цвета : BT.601-6 525, BT.1358 525, BT.1700 NTSC, SMPTE 170M
Характеристики трансфера : BT.709-5, BT.1361
Коэффициенты матрицы : BT.601-6 525, BT.1358 525, BT.1700 NTSC, SMPTE 170M
Аудио
Идентификатор : 2
Формат : AAC
Формат/Информация : Advanced Audio Codec
Профиль формата : LC
Идентификатор кодека : 40
Продолжительность : 3 м. 47 с.
Вид битрейта : Постоянный
Битрейт : 256 Кбит/сек
Каналы : 2 канала
Расположение каналов : Front: L R
Частота : 44,1 КГц
Метод сжатия : С потерями
Размер потока : 6,84 Мбайт (14%)
Язык : English
Дата кодирования : UTC 2012-01-12 19:08:18
Дата пометки : UTC 2012-01-12 19:08:20

Live

01. Haunted (Live)

Видео: 1524 Кбит/сек, 640x336, 29,970 кадр/сек
Аудио: 256 Кбит/сек, 2 канала, 44,1 КГц

02. Going Under (Live)

Видео: 1593 Кбит/сек, 640x336, 29,970 кадр/сек
Аудио: 256 Кбит/сек, 2 канала, 44,1 КГц

03. Taking Over Me (Live)

Видео: 1573 Кбит/сек, 640x336, 29,970 кадр/сек
Аудио: 256 Кбит/сек, 2 канала, 44,1 КГц

04. Everybody's Fool (Live)

Видео: 1546 Кбит/сек, 640x352 (16:9), 29,970 кадр/сек
Аудио: 256 Кбит/сек, 2 канала, 44,1 КГц

05. Thoughtless (Live)

Видео: 1516 Кбит/сек, 640x352 (16:9), 29,970 кадр/сек
Аудио: 256 Кбит/сек, 2 канала, 44,1 КГц

06. My Last Breath (Live)

Видео: 1431 Кбит/сек, 640x336, 29,970 кадр/сек
Аудио: 256 Кбит/сек, 2 канала, 44,1 КГц

07. Farther Away (Live)

Видео: 1518 Кбит/сек, 640x336, 29,970 кадр/сек
Аудио: 256 Кбит/сек, 2 канала, 44,1 КГц

08. Breathe No More (Live)

Видео: 1509 Кбит/сек, 640x336, 29,970 кадр/сек
Аудио: 256 Кбит/сек, 2 канала, 44,1 КГц

09. My Immortal (Live)

Видео: 1500 Кбит/сек, 640x352, 29,970 кадр/сек
Аудио: 256 Кбит/сек, 2 канала, 44,1 КГц

10. Bring Me To Life (Live)

Видео: 1519 Кбит/сек, 640x336, 29,970 кадр/сек
Аудио: 256 Кбит/сек, 2 канала, 44,1 КГц

11. Tourniquet (Live)

Видео: 1525 Кбит/сек, 640x352, 29,970 кадр/сек
Аудио: 256 Кбит/сек, 2 канала, 44,1 КГц

12. Imaginary (Live)

Видео: 1542 Кбит/сек, 640x336, 29,970 кадр/сек
Аудио: 256 Кбит/сек, 2 канала, 44,1 КГц


13. Whisper (Live)

Видео: 1530 Кбит/сек, 640x336, 29,970 кадр/сек
Аудио: 256 Кбит/сек, 2 канала, 44,1 КГц
Вы не можете начинать темы
Вы не можете отвечать на сообщения
Вы не можете редактировать свои сообщения
Вы не можете удалять свои сообщения
Вы не можете голосовать в опросах
Вы не можете прикреплять файлы к сообщениям
Вы можете скачивать файлы
!ВНИМАНИЕ!

Сайт не предоставляет электронные версии произведений, а занимается лишь коллекционированием и каталогизацией ссылок, присылаемых и публикуемых на форуме нашими читателями. Если вы являетесь правообладателем какого-либо представленного материала и не желаете, чтобы ссылка на него находилась в нашем каталоге, свяжитесь с нами, и мы незамедлительно удалим ее. Файлы для обмена на трекере предоставлены пользователями сайта, и администрация не несет ответственности за их содержание. Просьба не заливать файлы, защищенные авторскими правами, а также файлы нелегального содержания!

Искали программы, игры, дополнения, музыка mp3, аниме, аудио книги, журналы? Добро пожаловать на свободный торрент трекер Torrents, у нас можно скачать бесплатно, без смс и регистрации и прочих ограничений лучшие, отборные сборки программ, игр. Скачать торрентом не составит труда даже не опытному пользователю. Раздачи ежедневно обновляются, только лучшие и качественные раздачи, подробные описания и скриншоты. Огромная коллекция программ для работы со звуком, графикой, дизайном, а так же множество плагинов и инструментов к ним с подробной инструкцией и рекомендациями. Прошивки для навигаторов, карты. Разнообразные игры, для Windows, Linux. В коллекцие есть и старые игры любых жанров, Rpg, Action, Shooter, strategy Множество дополнений, модификаций, сценариев для популярных игр в жанре экш, рпг, гонки, стратегии, логические игры. Множество аддонов и сценариев для Microsoft Flight Simulator Большая коллекция книг, учебников. Если нет возможности купить печатное издание - смело скачивайте цифровую версию книги или, быть может, журнала. Не любите читать - можно загрузить бесплатно аудикнигу. Для веб дизайнеров и программистов так же найдется множество специализированного софта, таких как: редакторы с подсветкой, среды программирования, компоненты, системы управления базами данных, разнообразные скрипты и шаблоны. Не так давно у нас появился материал для автолюбителей и владельцев мото - оригинальные и неоригинальные каталоги запчастей, книги и журналы по ремонту и обслуживанию, видеоуроки, статьи по чип тюнингу, прошивкам. Процедура получения контента элементарная, достаточно просто скачать торрент файл и добавить его в загрузку в вашем торрент клиенте. Если у вас нет специального торрент клиента, вы можете его скачать у нас.