Rihanna - S&M [iTunes Plus AAC M4V] [2011, Pop] 

Цитировать
-Rihanna - S&M [iTunes Plus AAC M4V]
Год выпуска: 2011
Страна: US
Жанр: Pop
Продолжительность: 0:04:05
Качесто: Web-DL
Формат: M4V
Видео кодек: H.264
Аудио кодек: AAC
Видео: 1 564 Кбит/сек; 23,976 кадр/сек
Аудио: 249 Кбит/сек; 2 канала; 44,1 КГц
Официальный сайт: http://itunes.apple.com/us/music-video/s-m/id417942500

Скриншоты

MediaInfo

General
Полное имя : C:\Users\Черненко\Music\iTunes\iTunes Media\Music\iTunes Plus AAC M4V\S&M\0S&M_TMT.m4v
Формат : MPEG-4
Идентификатор кодека : M4V
Размер файла : 54.0 MiB
Продолжительность : 4mn 4s
Общий поток : 1 853 Kbps
Фильм : S&M
Альбом : S&M
Исполнитель : iTunes Plus AAC M4V
Жанр : Pop
Дата кодирования : UTC 2011-02-01 08:00:00
Дата пометки : UTC 2011-02-01 11:02:11
Библиотека кодирования : Apple QuickTime
Правообладатель : ℗ (C) 2011 The Island Def Jam Music Group
Обложка : Yes
apID : an2544@hotmail.com
cnID : 417942500
rtng : 0
atID : 280020153
geID : 1614
sfID : 143455
akID : 0
stik : 6
purd : 2011-02-02 04:36:55
xid : Universal:isrc:USUV71002981
iTunMOVI : / / / / asset-info / / file-size / 56666051 / flavor / 6:640x480LC-256 / screen-format / widescreen / / /
Video
Идентификатор : 1
Формат : AVC
Формат/Информация : Advanced Video Codec
Профайл формата : Baseline@L3.0
Параметры CABAC формата : No
Параметры ReFrames формата : 1 frame
Идентификатор кодека : avc1
Идентификатор кодека/Информация : Advanced Video Coding
Продолжительность : 4mn 4s
Вид битрейта : Variable
Битрейт : 1 564 Kbps
Ширина : 640 pixels
Высота : 352 pixels
Соотношение кадра : 16:9
Режим частоты кадров : Constant
Частота кадров : 23.976 fps
Разрешение : 8 bits
Колориметрия : 4:2:0
Тип развёртки : Progressive
Бит/(Пиксели*Кадры) : 0.290
Размер потока : 45.6 MiB (84%)
Язык : English
Дата кодирования : UTC 2011-02-01 11:02:05
Дата пометки : UTC 2011-02-01 11:02:11
Color primaries : BT.601-6 525, BT.1358 525, BT.1700 NTSC, SMPTE 170M
Transfer characteristics : BT.709-5, BT.1361
Matrix coefficients : BT.601-6 525, BT.1358 525, BT.1700 NTSC, SMPTE 170M
Audio
Идентификатор : 2
Формат : AAC
Формат/Информация : Advanced Audio Codec
Версия формата : Version 4
Профайл формата : LC
Параметры SBR формата : No
Идентификатор кодека : 40
Продолжительность : 4mn 4s
Вид битрейта : Constant
Битрейт : 249 Kbps
Номинальный битрейт : 256 Kbps
Канал(ы) : 2 channels
Расположение каналов : Front: L R
Частота : 44.1 KHz
Размер потока : 7.27 MiB (13%)
Язык : English
Дата кодирования : UTC 2011-02-01 11:02:06
Дата пометки : UTC 2011-02-01 11:02:11
Menu
Идентификатор : 3
Encoded date : UTC 2011-02-01 11:02:10
Tagged date : UTC 2011-02-01 11:02:11
-Lady GaGa - Born This Way (Single)

Katy Perry - E.T. (feat. Kayne West) (Single)

Rihanna - Te Amo

Jay Sean - Hit the Lights (feat. Lil Wayne) (Single)

Britney Spears - Hold It Against Me (Remixes)
-
Вы не можете начинать темы
Вы не можете отвечать на сообщения
Вы не можете редактировать свои сообщения
Вы не можете удалять свои сообщения
Вы не можете голосовать в опросах
Вы не можете прикреплять файлы к сообщениям
Вы можете скачивать файлы
!ВНИМАНИЕ!

Сайт не предоставляет электронные версии произведений, а занимается лишь коллекционированием и каталогизацией ссылок, присылаемых и публикуемых на форуме нашими читателями. Если вы являетесь правообладателем какого-либо представленного материала и не желаете, чтобы ссылка на него находилась в нашем каталоге, свяжитесь с нами, и мы незамедлительно удалим ее. Файлы для обмена на трекере предоставлены пользователями сайта, и администрация не несет ответственности за их содержание. Просьба не заливать файлы, защищенные авторскими правами, а также файлы нелегального содержания!

Искали программы, игры, дополнения, музыка mp3, аниме, аудио книги, журналы? Добро пожаловать на свободный торрент трекер Torrents, у нас можно скачать бесплатно, без смс и регистрации и прочих ограничений лучшие, отборные сборки программ, игр. Скачать торрентом не составит труда даже не опытному пользователю. Раздачи ежедневно обновляются, только лучшие и качественные раздачи, подробные описания и скриншоты. Огромная коллекция программ для работы со звуком, графикой, дизайном, а так же множество плагинов и инструментов к ним с подробной инструкцией и рекомендациями. Прошивки для навигаторов, карты. Разнообразные игры, для Windows, Linux. В коллекцие есть и старые игры любых жанров, Rpg, Action, Shooter, strategy Множество дополнений, модификаций, сценариев для популярных игр в жанре экш, рпг, гонки, стратегии, логические игры. Множество аддонов и сценариев для Microsoft Flight Simulator Большая коллекция книг, учебников. Если нет возможности купить печатное издание - смело скачивайте цифровую версию книги или, быть может, журнала. Не любите читать - можно загрузить бесплатно аудикнигу. Для веб дизайнеров и программистов так же найдется множество специализированного софта, таких как: редакторы с подсветкой, среды программирования, компоненты, системы управления базами данных, разнообразные скрипты и шаблоны. Не так давно у нас появился материал для автолюбителей и владельцев мото - оригинальные и неоригинальные каталоги запчастей, книги и журналы по ремонту и обслуживанию, видеоуроки, статьи по чип тюнингу, прошивкам. Процедура получения контента элементарная, достаточно просто скачать торрент файл и добавить его в загрузку в вашем торрент клиенте. Если у вас нет специального торрент клиента, вы можете его скачать у нас.