Би-2 – Девушки (Uncensored Version) (Г. Тоидзе) [2012, Rock, HDCamRip, 720x320] 

Цитировать
-Би-2 – Девушки (Uncensored Version)- Год выпуска: 2012
Страна: Россия
Жанр: Rock
Продолжительность: 03:43
Перевод : Не требуется
Русские субтитры: нет-Режиссёр: Г. Тоидзе
В ролях: группа Би-2-Описание: Группа Би-2 представляет эротико-драматический триллер "Девушки" на rutracker.org!
Провокационный сценарий, два месяца подготовки – клип, ради которого Би-2 сменили имидж, отрастив бороды, а гитарист группы Андрей Звонок даже побрился налысо. Режиссером этой маниакально-депрессивной истории в стиле британских молодёжных сериалов стал известнейший российский клипмейкер – Гоша Тоидзе, автор аудиовизуальных произведений Би-2 "Песок", "Медленная звезда", "Шамбала" и "Вечная призрачная встречная". Заснял загадки и экшен "Девушек" оператор Эдуард Мошкович, который знаком с группой еще со съемок клипов "Медленная звезда" и "Держаться за воздух".-Доп. информация: Материал предоставлен музыкантами. Предварительно оценить клип можно на YouTube.-Качество: HDCamRip
Ссылка на исходник: http://rutracker.org/forum/viewtopic.php?t=3984426
Формат: *.m4v
Видео кодек: H.264
аудио кодек: ААС
Разрешение: 720х320
Другие параметры видео: 1200 Kbps, 25.000 fps, 2,25:1
Аудио: 44,1 kHz, 2 ch, 128 kbps
Вшитая обложка: есть
Доп. теги (режиссёр, актёры и т.д.): нет
Телешоу/видеоклип : да
Главы: нет
Серия/сезон: не требуется

MediaInfo

Общее
Полное имя                               : D:\Книги\Bi-2.Devushki_new.m4v
Формат                                   : MPEG-4
Идентификатор кодека                     : M4V
Размер файла                             : 35,7 Мбайт
Продолжительность                        : 3 м. 43 с.
Режим общего битрейта                    : Переменный
Общий поток                              : 1339 Кбит/сек
Название фильма                          : Bi-2 Devushki
Дата кодирования                         : UTC 2012-03-21 17:57:57
Дата пометки                             : UTC 2012-03-22 18:02:05
Программа кодирования                    : MkvToMp4 [www.mkvtomp4.ru] version 0.219
Обложка                                  : Yes
desc                                     : Группа Би-2 представляет эротико-драматический триллер "Девушки" на rutracker.org!
ldes                                     : Группа Би-2 представляет эротико-драматический триллер "Девушки" на rutracker.org!
stik                                     : 6
akID                                     : -1
sfID                                     : 0
iTunMOVI                                 :  /  /  /   /   cast /    /     /     name /     Би-2 /     /    /   /
Видео
Идентификатор                            : 1
Формат                                   : AVC
Формат/Информация                        : Advanced Video Codec
Профиль формата                          : Baseline@L3.0
Параметр CABAC формата                   : Нет
Параметр ReFrames формата                : 3 кадра
Идентификатор кодека                     : avc1
Идентификатор кодека/Информация          : Advanced Video Coding
Продолжительность                        : 3 м. 43 с.
Битрейт                                  : 1200 Кбит/сек
Максимальный битрейт                     : 2613 Кбит/сек
Ширина                                   : 720 пикселей
Высота                                   : 320 пикселей
Соотношение сторон                       : 2,25:1
Режим частоты кадров                     : Постоянный
Частота кадров                           : 25,000 кадров/сек
Цветовое пространство                    : YUV
Субдискретизация насыщенности            : 4:2:0
Битовая глубина                          : 8 бит
Тип развёртки                            : Прогрессивная
Бит/(Пиксели*Кадры)                      : 0.208
Размер потока                            : 32,1 Мбайт (90%)
Библиотека кодирования                   : x264 core 120
Настройки программы                      : cabac=0 / ref=3 / deblock=1:0:0 / analyse=0x1:0x111 / me=umh / subme=6 / psy=1 / psy_rd=1.00:0.00 / mixed_ref=1 / me_range=24 / chroma_me=1 / trellis=0 / 8x8dct=0 / cqm=0 / deadzone=21,11 / fast_pskip=1 / chroma_qp_offset=-2 / threads=12 / sliced_threads=0 / nr=0 / decimate=1 / interlaced=0 / bluray_compat=0 / constrained_intra=0 / bframes=0 / weightp=0 / keyint=250 / keyint_min=25 / scenecut=40 / intra_refresh=0 / rc_lookahead=40 / rc=2pass / mbtree=1 / bitrate=1200 / ratetol=1.0 / qcomp=0.60 / qpmin=3 / qpmax=69 / qpstep=4 / cplxblur=20.0 / qblur=0.5 / ip_ratio=1.40 / aq=1:1.00
Язык                                     : English
Дата кодирования                         : UTC 2012-03-21 17:57:57
Дата пометки                             : UTC 2012-03-21 17:57:58
Основные цвета                           : BT.709-5, BT.1361, IEC 61966-2-4, SMPTE RP177
Характеристики трансфера                 : BT.709-5, BT.1361
Коэффициенты матрицы                     : BT.709-5, BT.1361, IEC 61966-2-4 709, SMPTE RP177
Аудио
Идентификатор                            : 2
Формат                                   : AAC
Формат/Информация                        : Advanced Audio Codec
Профиль формата                          : LC
Идентификатор кодека                     : 40
Продолжительность                        : 3 м. 43 с.
Вид битрейта                             : Переменный
Битрейт                                  : 128 Кбит/сек
Максимальный битрейт                     : 155 Кбит/сек
Каналы                                   : 2 канала
Расположение каналов                     : Front: L R
Частота                                  : 48,0 КГц
Метод сжатия                             : С потерями
Размер потока                            : 3,41 Мбайт (10%)
Язык                                     : Russian
Дата кодирования                         : UTC 2012-03-21 17:57:58
Дата пометки                             : UTC 2012-03-21 17:57:58

Скриншоты


-ССЫЛКИ: -
Вы не можете начинать темы
Вы не можете отвечать на сообщения
Вы не можете редактировать свои сообщения
Вы не можете удалять свои сообщения
Вы не можете голосовать в опросах
Вы не можете прикреплять файлы к сообщениям
Вы можете скачивать файлы
!ВНИМАНИЕ!

Сайт не предоставляет электронные версии произведений, а занимается лишь коллекционированием и каталогизацией ссылок, присылаемых и публикуемых на форуме нашими читателями. Если вы являетесь правообладателем какого-либо представленного материала и не желаете, чтобы ссылка на него находилась в нашем каталоге, свяжитесь с нами, и мы незамедлительно удалим ее. Файлы для обмена на трекере предоставлены пользователями сайта, и администрация не несет ответственности за их содержание. Просьба не заливать файлы, защищенные авторскими правами, а также файлы нелегального содержания!

Искали программы, игры, дополнения, музыка mp3, аниме, аудио книги, журналы? Добро пожаловать на свободный торрент трекер Torrents, у нас можно скачать бесплатно, без смс и регистрации и прочих ограничений лучшие, отборные сборки программ, игр. Скачать торрентом не составит труда даже не опытному пользователю. Раздачи ежедневно обновляются, только лучшие и качественные раздачи, подробные описания и скриншоты. Огромная коллекция программ для работы со звуком, графикой, дизайном, а так же множество плагинов и инструментов к ним с подробной инструкцией и рекомендациями. Прошивки для навигаторов, карты. Разнообразные игры, для Windows, Linux. В коллекцие есть и старые игры любых жанров, Rpg, Action, Shooter, strategy Множество дополнений, модификаций, сценариев для популярных игр в жанре экш, рпг, гонки, стратегии, логические игры. Множество аддонов и сценариев для Microsoft Flight Simulator Большая коллекция книг, учебников. Если нет возможности купить печатное издание - смело скачивайте цифровую версию книги или, быть может, журнала. Не любите читать - можно загрузить бесплатно аудикнигу. Для веб дизайнеров и программистов так же найдется множество специализированного софта, таких как: редакторы с подсветкой, среды программирования, компоненты, системы управления базами данных, разнообразные скрипты и шаблоны. Не так давно у нас появился материал для автолюбителей и владельцев мото - оригинальные и неоригинальные каталоги запчастей, книги и журналы по ремонту и обслуживанию, видеоуроки, статьи по чип тюнингу, прошивкам. Процедура получения контента элементарная, достаточно просто скачать торрент файл и добавить его в загрузку в вашем торрент клиенте. Если у вас нет специального торрент клиента, вы можете его скачать у нас.