Lenny Kravitz - видеоклипы / Lenny Kravitz - Greatest Hits Limited Tour Edition CD & DVD [2005, Rock, DVD5, 480x360] 

Цитировать
Lenny Kravitz - видеоклипы / Lenny Kravitz - Greatest Hits Limited Tour Edition CD & DVD
Год выпуска: 2005
Страна: E.U.
Жанр: Music
Продолжительность: 24м18с
Источник для кодирования: DVD5
Формат: *.m4v
Видео кодек: H.264
аудио кодек: ААС
Разрешение: 480x360
Битрейт: 896 кБ/с
Бит/(Пиксели*Кадры): 0.207
Частота кадров: 25,000 кадр/сек
Аудио: 48000Hz AAC 160k 2ch
Вшитая обложка: есть
Видеоклип : да
Описание: Бонусный DVD к сборнику Greatest Hits Limited Tour Edition

Трэклист

01. Always On The Run (03:57)
02. Are You Gonna Go My Way (03:33)
03. Fly Away (03:43)
04. American Woman (04:20)
05. Dig In (04:07)
06. Where are We Runnin'?(04:35)

MediaInfo

DVD

Общее
Полное имя : F:\\VIDEO_TS\VIDEO_TS.BUP
Формат : DVD Video
Профиль формата : Menu
Размер файла : 12,0 Кбайт
Видео
Идентификатор : 224 (0xE0)
Формат : MPEG Video
Версия формата : Version 2
Вид битрейта : Переменный
Ширина : 720 пикс.
Высота : 576 пикс.
Соотношение сторон : 4:3
Частота кадров : 25,000 кадр/сек
Стандарт вещания : PAL
Метод сжатия : С потерями
Аудио
Формат : AC-3
Формат/Информация : Audio Coding 3
Канал(ы) : 2 канала(ов)
Частота : 48,0 КГц
Метод сжатия : С потерями
Текст
Формат : RLE
Формат/Информация : Run-length encoding
Битовая глубина : 2 бит
Общее
Полное имя : F:\\VIDEO_TS\VIDEO_TS.IFO
Формат : DVD Video
Профиль формата : Menu
Размер файла : 12,0 Кбайт
Видео
Идентификатор : 224 (0xE0)
Формат : MPEG Video
Версия формата : Version 2
Вид битрейта : Переменный
Ширина : 720 пикс.
Высота : 576 пикс.
Соотношение сторон : 4:3
Частота кадров : 25,000 кадр/сек
Стандарт вещания : PAL
Метод сжатия : С потерями
Аудио
Формат : AC-3
Формат/Информация : Audio Coding 3
Канал(ы) : 2 канала(ов)
Частота : 48,0 КГц
Метод сжатия : С потерями
Текст
Формат : RLE
Формат/Информация : Run-length encoding
Битовая глубина : 2 бит
Общее
Полное имя : F:\\VIDEO_TS\VIDEO_TS.VOB
Формат : MPEG-PS
Размер файла : 50,4 Мбайт
Продолжительность : 13 с.
Общий поток : 31,5 Мбит/сек
Библиотека кодирования : Apple MPEG-2 Encoder v481-20050412 [6500000 1499 R7600000 w2 e2s E0 s0x10002 V0x0]
Видео
Идентификатор : 224 (0xE0)
Формат : MPEG Video
Версия формата : Version 2
Профиль формата : Main@Main
Параметр BVOP формата : Да
Параметр матрицы формата : По умолчанию
Параметры GOP формата : M=2, N=7
Продолжительность : 89 мс.
Вид битрейта : Переменный
Битрейт : 30,7 Мбит/сек
Номинальный битрейт : 7600 Кбит/сек
Ширина : 720 пикс.
Высота : 576 пикс.
Соотношение сторон : 4:3
Частота кадров : 25,000 кадр/сек
Стандарт вещания : PAL
Цветовое пространство : YUV
Подвыборка цветности : 4:2:0
Битовая глубина : 8 бит
Тип развёртки : Прогрессивная
Порядок развёртки : Нижнее поле первое
Метод сжатия : С потерями
Бит/(Пиксели*Кадры) : 2.958
Размер потока : 333 Кбайт (1%)
Библиотека кодирования : Apple MPEG-2 Encoder v481-20050412 [6500000 1499 R7600000 w2 e2s E0 s0x10002 V0x0]
Аудио
Идентификатор : 128 (0x80)
Формат : AC-3
Формат/Информация : Audio Coding 3
Расширение режима : CM (complete main)
Продолжительность : 13 с.
Вид битрейта : Постоянный
Битрейт : 224 Кбит/сек
Канал(ы) : 2 канала(ов)
Расположение каналов : Front: L R
Частота : 48,0 КГц
Битовая глубина : 16 бит
Метод сжатия : С потерями
Размер потока : 367 Кбайт (1%)
Текст
Идентификатор : 32 (0x20)
Формат : RLE
Формат/Информация : Run-length encoding
Меню
Общее
Полное имя : F:\\VIDEO_TS\VTS_01_0.BUP
Формат : DVD Video
Профиль формата : Program
Размер файла : 32,0 Кбайт
Продолжительность : 4 м. 38 с.
Общий поток : 941 бит/сек
Видео
Идентификатор : 224 (0xE0)
Формат : MPEG Video
Версия формата : Version 2
Продолжительность : 4 м. 38 с.
Вид битрейта : Переменный
Ширина : 720 пикс.
Высота : 576 пикс.
Соотношение сторон : 4:3
Частота кадров : 25,000 кадр/сек
Стандарт вещания : PAL
Метод сжатия : С потерями
Аудио
Идентификатор : 128 (0x80)
Формат : AC-3
Формат/Информация : Audio Coding 3
Продолжительность : 4 м. 38 с.
Канал(ы) : 2 канала(ов)
Частота : 48,0 КГц
Метод сжатия : С потерями
Язык : English
Меню #1
Продолжительность : 3 м. 55 с.
00:00:00.000 : Chapter 1
00:03:55.400 : Chapter 2
List (Audio) : 0
Меню #2
Продолжительность : 3 м. 36 с.
00:00:00.000 : Chapter 1
00:03:35.600 : Chapter 2
List (Audio) : 0
Меню #3
Продолжительность : 3 м. 45 с.
00:00:00.000 : Chapter 1
00:03:44.600 : Chapter 2
List (Audio) : 0
Меню #4
Продолжительность : 4 м. 22 с.
00:00:00.000 : Chapter 1
00:04:21.800 : Chapter 2
List (Audio) : 0
Меню #5
Продолжительность : 4 м. 9 с.
00:00:00.000 : Chapter 1
00:04:09.200 : Chapter 2
List (Audio) : 0
Меню #6
Продолжительность : 4 м. 38 с.
00:00:00.000 : Chapter 1
00:04:38.000 : Chapter 2
List (Audio) : 0
Общее
Полное имя : F:\\VIDEO_TS\VTS_01_0.IFO
Формат : DVD Video
Профиль формата : Program
Размер файла : 32,0 Кбайт
Продолжительность : 4 м. 38 с.
Общий поток : 941 бит/сек
Видео
Идентификатор : 224 (0xE0)
Формат : MPEG Video
Версия формата : Version 2
Продолжительность : 4 м. 38 с.
Вид битрейта : Переменный
Ширина : 720 пикс.
Высота : 576 пикс.
Соотношение сторон : 4:3
Частота кадров : 25,000 кадр/сек
Стандарт вещания : PAL
Метод сжатия : С потерями
Аудио
Идентификатор : 128 (0x80)
Формат : AC-3
Формат/Информация : Audio Coding 3
Продолжительность : 4 м. 38 с.
Канал(ы) : 2 канала(ов)
Частота : 48,0 КГц
Метод сжатия : С потерями
Язык : English
Меню #1
Продолжительность : 3 м. 55 с.
00:00:00.000 : Chapter 1
00:03:55.400 : Chapter 2
List (Audio) : 0
Меню #2
Продолжительность : 3 м. 36 с.
00:00:00.000 : Chapter 1
00:03:35.600 : Chapter 2
List (Audio) : 0
Меню #3
Продолжительность : 3 м. 45 с.
00:00:00.000 : Chapter 1
00:03:44.600 : Chapter 2
List (Audio) : 0
Меню #4
Продолжительность : 4 м. 22 с.
00:00:00.000 : Chapter 1
00:04:21.800 : Chapter 2
List (Audio) : 0
Меню #5
Продолжительность : 4 м. 9 с.
00:00:00.000 : Chapter 1
00:04:09.200 : Chapter 2
List (Audio) : 0
Меню #6
Продолжительность : 4 м. 38 с.
00:00:00.000 : Chapter 1
00:04:38.000 : Chapter 2
List (Audio) : 0
Общее
Полное имя : F:\\VIDEO_TS\VTS_01_0.VOB
Формат : MPEG-PS
Размер файла : 10,0 Кбайт
Продолжительность : 40 мс.
Общий поток : 2048 Кбит/сек
Видео
Идентификатор : 224 (0xE0)
Формат : MPEG Video
Версия формата : Version 2
Профиль формата : Main@Main
Параметр BVOP формата : Нет
Параметр матрицы формата : По умолчанию
Продолжительность : 40 мс.
Вид битрейта : Постоянный
Битрейт : 8000 Кбит/сек
Ширина : 720 пикс.
Высота : 576 пикс.
Соотношение сторон : 4:3
Частота кадров : 25,000 кадр/сек
Стандарт вещания : PAL
Цветовое пространство : YUV
Подвыборка цветности : 4:2:0
Битовая глубина : 8 бит
Тип развёртки : Прогрессивная
Порядок развёртки : Верхнее поле первое
Метод сжатия : С потерями
Бит/(Пиксели*Кадры) : 0.772
Размер потока : 39,1 Кбайт
Меню
Общее
Полное имя : F:\\VIDEO_TS\VTS_01_1.VOB
Формат : MPEG-PS
Размер файла : 1024 Мбайт
Продолжительность : 1 м. 28 с.
Общий поток : 96,6 Мбит/сек
Видео
Идентификатор : 224 (0xE0)
Формат : MPEG Video
Версия формата : Version 2
Профиль формата : Main@Main
Параметр BVOP формата : Да
Параметр матрицы формата : По умолчанию
Параметры GOP формата : M=3, N=13
Продолжительность : 1 м. 28 с.
Вид битрейта : Постоянный
Битрейт : 94,4 Мбит/сек
Номинальный битрейт : 8000 Кбит/сек
Ширина : 720 пикс.
Высота : 576 пикс.
Соотношение сторон : 4:3
Частота кадров : 25,000 кадр/сек
Стандарт вещания : PAL
Цветовое пространство : YUV
Подвыборка цветности : 4:2:0
Битовая глубина : 8 бит
Тип развёртки : Чересстрочная
Порядок развёртки : Верхнее поле первое
Метод сжатия : С потерями
Бит/(Пиксели*Кадры) : 9.108
Размер потока : 1001 Мбайт (98%)
Аудио
Идентификатор : 128 (0x80)
Формат : AC-3
Формат/Информация : Audio Coding 3
Расширение режима : CM (complete main)
Продолжительность : 1 м. 28 с.
Вид битрейта : Постоянный
Битрейт : 224 Кбит/сек
Канал(ы) : 2 канала(ов)
Расположение каналов : Front: L R
Частота : 48,0 КГц
Битовая глубина : 16 бит
Метод сжатия : С потерями
Размер потока : 2,37 Мбайт (0%)
Меню
Общее
Полное имя : F:\\VIDEO_TS\VTS_01_2.VOB
Формат : MPEG-PS
Размер файла : 437 Мбайт
Продолжительность : 7 м. 37 с.
Общий поток : 8017 Кбит/сек
Видео
Идентификатор : 224 (0xE0)
Формат : MPEG Video
Версия формата : Version 2
Профиль формата : Main@Main
Параметр BVOP формата : Да
Параметр матрицы формата : По умолчанию
Параметры GOP формата : M=3, N=13
Продолжительность : 7 м. 37 с.
Вид битрейта : Постоянный
Битрейт : 8000 Кбит/сек
Ширина : 720 пикс.
Высота : 576 пикс.
Соотношение сторон : 4:3
Частота кадров : 25,000 кадр/сек
Стандарт вещания : PAL
Цветовое пространство : YUV
Подвыборка цветности : 4:2:0
Битовая глубина : 8 бит
Тип развёртки : Чересстрочная
Порядок развёртки : Верхнее поле первое
Метод сжатия : С потерями
Бит/(Пиксели*Кадры) : 0.772
Размер потока : 416 Мбайт (95%)
Аудио
Идентификатор : 128 (0x80)
Формат : AC-3
Формат/Информация : Audio Coding 3
Расширение режима : CM (complete main)
Продолжительность : 3 м. 9 с.
Вид битрейта : Постоянный
Битрейт : 224 Кбит/сек
Канал(ы) : 2 канала(ов)
Расположение каналов : Front: L R
Частота : 48,0 КГц
Битовая глубина : 16 бит
Метод сжатия : С потерями
Задержка видео : -120 мс.
Размер потока : 5,05 Мбайт (1%)
Меню

4

Полное имя : C:\Documents and Settings\Administrator\Desktop\Kravitz\04 American Woman.m4v
Формат : MPEG-4
Профиль формата : Base Media / Version 2
Идентификатор кодека : mp42
Размер файла : 33,1 Мбайт
Продолжительность : 4 м. 21 с.
Общий поток : 1061 Кбит/сек
Название фильма : American Woman
Альбом : Greatest Hits Limited Tour Edition
Часть/Положение : 1
Часть/Всего : 1
Дорожка/Положение : 4
Дорожка/Всего : 6
Исполнитель : Lenny Kravitz
Сценарист : B.Cummings/M.J.Kale/G.Peterson/R.Bachman
Жанр : Music
Дата кодирования : 2005
Дата пометки : UTC 2011-01-25 17:28:34
Программа кодирования : HandBrake 0.9.5 2011010300
Правообладатель : Virgin Records America, Inc.
Обложка : Yes
iTunMOVI : / / / / directors / / / name / Michael Galardi / / / producers / / / name / Phil Wild / / / /
stik : 6
Видео
Идентификатор : 1
Формат : AVC
Формат/Информация : Advanced Video Codec
Профиль формата : Baseline@L2.1
Параметр CABAC формата : Нет
Параметр ReFrames формата : 2 кадры
Идентификатор кодека : avc1
Идентификатор кодека/Информация : Advanced Video Coding
Продолжительность : 4 м. 21 с.
Вид битрейта : Переменный
Битрейт : 896 Кбит/сек
Ширина : 480 пикс.
Высота : 360 пикс.
Соотношение сторон : 4:3
Режим частоты кадров : Постоянный
Частота кадров : 25,000 кадр/сек
Цветовое пространство : YUV
Подвыборка цветности : 4:2:0
Битовая глубина : 8 бит
Тип развёртки : Прогрессивная
Бит/(Пиксели*Кадры) : 0.207
Размер потока : 28,0 Мбайт (85%)
Библиотека кодирования : x264 core 112
Настройки программы : cabac=0 / ref=2 / deblock=1:0:0 / analyse=0x1:0x111 / me=umh / subme=6 / psy=1 / psy_rd=1.00:0.00 / mixed_ref=1 / me_range=16 / chroma_me=1 / trellis=0 / 8x8dct=0 / cqm=0 / deadzone=21,11 / fast_pskip=1 / chroma_qp_offset=-2 / threads=3 / sliced_threads=0 / nr=0 / decimate=1 / interlaced=0 / constrained_intra=0 / bframes=0 / weightp=0 / keyint=250 / keyint_min=25 / scenecut=40 / intra_refresh=0 / rc_lookahead=40 / rc=2pass / mbtree=1 / bitrate=896 / ratetol=1.0 / qcomp=0.60 / qpmin=3 / qpmax=51 / qpstep=4 / cplxblur=20.0 / qblur=0.5 / ip_ratio=1.40 / aq=1:1.00
Дата кодирования : UTC 2011-01-24 22:11:17
Дата пометки : UTC 2011-01-24 22:14:16
Основные цвета : BT.601-6 525, BT.1358 525, BT.1700 NTSC, SMPTE 170M
Характеристики трансфера : BT.709-5, BT.1361
Коэффициенты матрицы : BT.601-6 525, BT.1358 525, BT.1700 NTSC, SMPTE 170M
Аудио
Идентификатор : 2
Формат : AAC
Формат/Информация : Advanced Audio Codec
Профиль формата : LC
Идентификатор кодека : 40
Продолжительность : 4 м. 21 с.
Вид битрейта : Переменный
Битрейт : 160 Кбит/сек
Максимальный битрейт : 186 Кбит/сек
Канал(ы) : 2 канала(ов)
Расположение каналов : Front: L R
Частота : 48,0 КГц
Метод сжатия : С потерями
Размер потока : 4,99 Мбайт (15%)
Язык : English
Дата кодирования : UTC 2011-01-24 22:11:17
Дата пометки : UTC 2011-01-25 20:07:02
Текст
Идентификатор : 3
Формат : Apple text
Идентификатор кодека : text
Продолжительность : 4 м. 21 с.
Битрейт : 1 бит/сек
Размер потока : 23,0 байт (0%)
Дата кодирования : UTC 2011-01-24 22:11:17
Дата пометки : UTC 2011-01-24 22:14:16

5

Общее
Полное имя : I:\Video\Lenny Kravitz_Video\L.Kravitz_torrent\05 Dig In.m4v
Формат : MPEG-4
Профиль формата : Base Media / Version 2
Идентификатор кодека : mp42
Размер файла : 31,5 Мбайт
Продолжительность : 4 м. 9 с.
Общий поток : 1060 Кбит/сек
Название фильма : Dig In
Альбом : Greatest Hits Limited Tour Edition
Часть/Положение : 1
Часть/Всего : 1
Дорожка/Положение : 5
Дорожка/Всего : 6
Исполнитель : Lenny Kravitz
Сценарист : Lenny Kravitz
Жанр : Music
Дата кодирования : 2005
Дата пометки : UTC 2011-01-25 19:38:12
Программа кодирования : HandBrake 0.9.5 2011010300
Правообладатель : Virgin Records America, Inc.
Обложка : Yes
stik : 6
Видео
Идентификатор : 1
Формат : AVC
Формат/Информация : Advanced Video Codec
Профиль формата : Baseline@L2.1
Параметр CABAC формата : Нет
Параметр ReFrames формата : 2 кадры
Идентификатор кодека : avc1
Идентификатор кодека/Информация : Advanced Video Coding
Продолжительность : 4 м. 9 с.
Вид битрейта : Переменный
Битрейт : 896 Кбит/сек
Ширина : 480 пикс.
Высота : 352 пикс.
Соотношение сторон : 4:3
Режим частоты кадров : Постоянный
Частота кадров : 25,000 кадр/сек
Цветовое пространство : YUV
Подвыборка цветности : 4:2:0
Битовая глубина : 8 бит
Тип развёртки : Прогрессивная
Бит/(Пиксели*Кадры) : 0.212
Размер потока : 26,6 Мбайт (85%)
Библиотека кодирования : x264 core 112
Настройки программы : cabac=0 / ref=2 / deblock=1:0:0 / analyse=0x1:0x111 / me=umh / subme=6 / psy=1 / psy_rd=1.00:0.00 / mixed_ref=1 / me_range=16 / chroma_me=1 / trellis=0 / 8x8dct=0 / cqm=0 / deadzone=21,11 / fast_pskip=1 / chroma_qp_offset=-2 / threads=3 / sliced_threads=0 / nr=0 / decimate=1 / interlaced=0 / constrained_intra=0 / bframes=0 / weightp=0 / keyint=250 / keyint_min=25 / scenecut=40 / intra_refresh=0 / rc_lookahead=40 / rc=2pass / mbtree=1 / bitrate=896 / ratetol=1.0 / qcomp=0.60 / qpmin=3 / qpmax=51 / qpstep=4 / cplxblur=20.0 / qblur=0.5 / ip_ratio=1.40 / aq=1:1.00
Дата кодирования : UTC 2011-01-25 19:29:01
Дата пометки : UTC 2011-01-25 19:31:55
Основные цвета : BT.601-6 525, BT.1358 525, BT.1700 NTSC, SMPTE 170M
Характеристики трансфера : BT.709-5, BT.1361
Коэффициенты матрицы : BT.601-6 525, BT.1358 525, BT.1700 NTSC, SMPTE 170M
Аудио
Идентификатор : 2
Формат : AAC
Формат/Информация : Advanced Audio Codec
Профиль формата : LC
Идентификатор кодека : 40
Продолжительность : 4 м. 9 с.
Вид битрейта : Переменный
Битрейт : 160 Кбит/сек
Максимальный битрейт : 194 Кбит/сек
Канал(ы) : 2 канала(ов)
Расположение каналов : Front: L R
Частота : 48,0 КГц
Метод сжатия : С потерями
Размер потока : 4,74 Мбайт (15%)
Язык : English
Дата кодирования : UTC 2011-01-25 19:29:01
Дата пометки : UTC 2011-01-25 22:36:18
Текст
Идентификатор : 3
Формат : Apple text
Идентификатор кодека : text
Продолжительность : 4 м. 9 с.
Битрейт : 1 бит/сек
Размер потока : 23,0 байт (0%)
Дата кодирования : UTC 2011-01-25 19:29:01
Дата пометки : UTC 2011-01-25 19:31:55

6

Общее
Полное имя : C:\Documents and Settings\Administrator\Desktop\Kravitz\kravitz\06 Where Are We Runnin'.m4v
Формат : MPEG-4
Профиль формата : Base Media / Version 2
Идентификатор кодека : mp42
Размер файла : 35,2 Мбайт
Продолжительность : 4 м. 38 с.
Общий поток : 1061 Кбит/сек
Дата кодирования : UTC 2011-01-25 20:28:22
Дата пометки : UTC 2011-01-25 20:32:58
Программа кодирования : HandBrake 0.9.5 2011010300
Видео
Идентификатор : 1
Формат : AVC
Формат/Информация : Advanced Video Codec
Профиль формата : High@L2.1
Параметр CABAC формата : Да
Параметр ReFrames формата : 4 кадры
Идентификатор кодека : avc1
Идентификатор кодека/Информация : Advanced Video Coding
Продолжительность : 4 м. 38 с.
Вид битрейта : Переменный
Битрейт : 896 Кбит/сек
Ширина : 480 пикс.
Высота : 352 пикс.
Соотношение сторон : 4:3
Режим частоты кадров : Постоянный
Частота кадров : 25,000 кадр/сек
Цветовое пространство : YUV
Подвыборка цветности : 4:2:0
Битовая глубина : 8 бит
Тип развёртки : Прогрессивная
Бит/(Пиксели*Кадры) : 0.212
Размер потока : 29,7 Мбайт (85%)
Библиотека кодирования : x264 core 112
Настройки программы : cabac=1 / ref=3 / deblock=1:0:0 / analyse=0x3:0x113 / me=hex / subme=7 / psy=1 / psy_rd=1.00:0.00 / mixed_ref=1 / me_range=16 / chroma_me=1 / trellis=1 / 8x8dct=1 / cqm=0 / deadzone=21,11 / fast_pskip=1 / chroma_qp_offset=-2 / threads=3 / sliced_threads=0 / nr=0 / decimate=1 / interlaced=0 / constrained_intra=0 / bframes=3 / b_pyramid=2 / b_adapt=1 / b_bias=0 / direct=1 / weightb=1 / open_gop=0 / weightp=2 / keyint=250 / keyint_min=25 / scenecut=40 / intra_refresh=0 / rc_lookahead=40 / rc=2pass / mbtree=1 / bitrate=896 / ratetol=1.0 / qcomp=0.60 / qpmin=3 / qpmax=51 / qpstep=4 / cplxblur=20.0 / qblur=0.5 / ip_ratio=1.40 / aq=1:1.00
Дата кодирования : UTC 2011-01-25 20:28:22
Дата пометки : UTC 2011-01-25 20:32:58
Основные цвета : BT.601-6 525, BT.1358 525, BT.1700 NTSC, SMPTE 170M
Характеристики трансфера : BT.709-5, BT.1361
Коэффициенты матрицы : BT.601-6 525, BT.1358 525, BT.1700 NTSC, SMPTE 170M
Аудио
Идентификатор : 2
Формат : AAC
Формат/Информация : Advanced Audio Codec
Профиль формата : LC
Идентификатор кодека : 40
Продолжительность : 4 м. 37 с.
Вид битрейта : Переменный
Битрейт : 160 Кбит/сек
Максимальный битрейт : 250 Кбит/сек
Канал(ы) : 2 канала(ов)
Расположение каналов : Front: L R
Частота : 48,0 КГц
Метод сжатия : С потерями
Размер потока : 5,31 Мбайт (15%)
Язык : English
Дата кодирования : UTC 2011-01-25 20:28:22
Дата пометки : UTC 2011-01-25 20:32:58

Обложка

Скриншоты

Вы не можете начинать темы
Вы не можете отвечать на сообщения
Вы не можете редактировать свои сообщения
Вы не можете удалять свои сообщения
Вы не можете голосовать в опросах
Вы не можете прикреплять файлы к сообщениям
Вы можете скачивать файлы
!ВНИМАНИЕ!

Сайт не предоставляет электронные версии произведений, а занимается лишь коллекционированием и каталогизацией ссылок, присылаемых и публикуемых на форуме нашими читателями. Если вы являетесь правообладателем какого-либо представленного материала и не желаете, чтобы ссылка на него находилась в нашем каталоге, свяжитесь с нами, и мы незамедлительно удалим ее. Файлы для обмена на трекере предоставлены пользователями сайта, и администрация не несет ответственности за их содержание. Просьба не заливать файлы, защищенные авторскими правами, а также файлы нелегального содержания!

Искали программы, игры, дополнения, музыка mp3, аниме, аудио книги, журналы? Добро пожаловать на свободный торрент трекер Torrents, у нас можно скачать бесплатно, без смс и регистрации и прочих ограничений лучшие, отборные сборки программ, игр. Скачать торрентом не составит труда даже не опытному пользователю. Раздачи ежедневно обновляются, только лучшие и качественные раздачи, подробные описания и скриншоты. Огромная коллекция программ для работы со звуком, графикой, дизайном, а так же множество плагинов и инструментов к ним с подробной инструкцией и рекомендациями. Прошивки для навигаторов, карты. Разнообразные игры, для Windows, Linux. В коллекцие есть и старые игры любых жанров, Rpg, Action, Shooter, strategy Множество дополнений, модификаций, сценариев для популярных игр в жанре экш, рпг, гонки, стратегии, логические игры. Множество аддонов и сценариев для Microsoft Flight Simulator Большая коллекция книг, учебников. Если нет возможности купить печатное издание - смело скачивайте цифровую версию книги или, быть может, журнала. Не любите читать - можно загрузить бесплатно аудикнигу. Для веб дизайнеров и программистов так же найдется множество специализированного софта, таких как: редакторы с подсветкой, среды программирования, компоненты, системы управления базами данных, разнообразные скрипты и шаблоны. Не так давно у нас появился материал для автолюбителей и владельцев мото - оригинальные и неоригинальные каталоги запчастей, книги и журналы по ремонту и обслуживанию, видеоуроки, статьи по чип тюнингу, прошивкам. Процедура получения контента элементарная, достаточно просто скачать торрент файл и добавить его в загрузку в вашем торрент клиенте. Если у вас нет специального торрент клиента, вы можете его скачать у нас.