[iPhone] Atoms For Peace - iTunes Music Videos: Before Your Very Eyes…. / Ingenue / Видеоклипы [2013, UK/USA, Alternative, WEB-DL, 640p] 

Цитировать
Atoms For Peace Жанр: Alternative
Год издания: 2013
Страна: UK/USA
Аудио кодек: aac
Тип рипа: tracks
Битрейт аудио: 256 kbps
Продолжительность: 00:10:20
Источник: iTunes Store
Вшитые тексты: нет
Наличие сканов в содержимом раздачи: нет

2013 - Before Your Very Eyes….

Качество: WEB-DL
Продолжительность: 00:05:49
Формат: MPEG-4
Видео: H.264, 640 x 272, 25,000 fps, 1543 Kbps, без анаморфа
Аудио: Русский (AAC Stereo, 256 Kbps, 48 KHz)

Отчёт MediaInfo

Общее
Полное имя : F:\Мои Раздачи\!iTunes\Atoms for Peace\Music Videos\2013 - Before Your Very Eyes….m4v
Формат : MPEG-4
Идентификатор кодека : M4V (M4V /mp42/isom)
Размер файла : 75,8 Мбайт
Продолжительность : 5 м. 49 с.
Общий поток : 1821 Кбит/сек
Название фильма : Before Your Very Eyes…
Исполнитель : Atoms for Peace
Жанр : Электронная музыка
Тип содержимого : Music Video
Дата записи : UTC 2013-10-18 07:00:00
Дата кодирования : UTC 2015-03-21 01:21:17
Дата пометки : UTC 2015-03-21 01:21:18
Обложка : Yes
Оценка : None
AppleStoreAccount : Evgenius1986@mail.ru
ownr : Евгений Степанов
AppleStoreCatalogID : 736648655
AlbumTitleID : 547192558
GenreID : 1607
AppleStoreCountry : Russia
PurchaseDate : 2017-06-28 23:13:23
Flavour : 8:480p
ContentRating : ||0|
Видео
Идентификатор : 1
Формат : AVC
Формат/Информация : Advanced Video Codec
Профиль формата : Main@L3
Параметр CABAC формата : Нет
Параметр ReFrames формата : 2 кадра
Параметр GOP формата : M=2, N=90
Идентификатор кодека : avc1
Идентификатор кодека/Информация : Advanced Video Coding
Продолжительность : 5 м. 49 с.
Битрейт : 1543 Кбит/сек
Ширина : 640 пикселей
Высота : 272 пикселя
Соотношение сторон : 2,35:1
Режим частоты кадров : Постоянный
Частота кадров : 25,000 кадров/сек
Цветовое пространство : YUV
Субдискретизация насыщенности : 4:2:0
Битовая глубина : 8 бит
Тип развёртки : Прогрессивная
Бит/(Пиксели*Кадры) : 0.355
Размер потока : 64,2 Мбайт (85%)
Заголовок : Core Media Video
Язык : English
Дата кодирования : UTC 2015-03-21 01:21:17
Дата пометки : UTC 2015-03-21 01:21:18
Цветовой диапазон : Limited
Основные цвета : BT.709
Характеристики трансфера : BT.709
Коэффициенты матрицы : BT.709
Аудио
Идентификатор : 2
Формат : AAC
Формат/Информация : Advanced Audio Codec
Профиль формата : LC
Идентификатор кодека : 40
Продолжительность : 5 м. 49 с.
Продолжительность оригинала : 5 м. 49 с.
Вид битрейта : Постоянный
Битрейт : 256 Кбит/сек
Каналы : 2 канала
Расположение каналов : Front: L R
Частота : 44,1 КГц
Частота кадров : 43,066 кадра/сек (1024 spf)
Метод сжатия : С потерями
Размер потока : 10,4 Мбайт (14%)
Размер потока оригинала : 10,4 Мбайт (14%)
Заголовок : Core Media Audio
Язык : English
Дата кодирования : UTC 2015-03-21 01:21:17
Дата пометки : UTC 2015-03-21 01:21:18

Скриншоты

2013 - Ingenue

Качество: WEB-DL
Продолжительность: 00:04:31
Формат: MPEG-4
Видео: H.264, 640 x 272, 29.970 fps, 1521 Kbps, без анаморфа
Аудио: Русский (AAC Stereo, 256 Kbps, 48 KHz)

Отчёт MediaInfo

Общее
Полное имя : F:\Мои Раздачи\!iTunes\Atoms for Peace\Music Videos\2013 - Ingenue.m4v
Формат : MPEG-4
Идентификатор кодека : M4V (M4V /mp42/isom)
Размер файла : 58,4 Мбайт
Продолжительность : 4 м. 31 с.
Общий поток : 1803 Кбит/сек
Название фильма : Ingenue
Исполнитель : Atoms for Peace
Жанр : Электронная музыка
Тип содержимого : Music Video
Дата записи : UTC 2013-03-11 07:00:00
Дата кодирования : UTC 2015-03-24 22:49:27
Дата пометки : UTC 2015-03-24 22:49:27
Обложка : Yes
Оценка : None
AppleStoreAccount : Evgenius1986@mail.ru
ownr : Евгений Степанов
AppleStoreCatalogID : 619870004
AlbumTitleID : 547192558
GenreID : 1607
AppleStoreCountry : Russia
PurchaseDate : 2017-06-28 23:13:10
Flavour : 8:480p
ContentRating : ||0|
Видео
Идентификатор : 1
Формат : AVC
Формат/Информация : Advanced Video Codec
Профиль формата : Main@L3
Параметр CABAC формата : Нет
Параметр ReFrames формата : 2 кадра
Параметр GOP формата : M=2, N=90
Идентификатор кодека : avc1
Идентификатор кодека/Информация : Advanced Video Coding
Продолжительность : 4 м. 31 с.
Битрейт : 1521 Кбит/сек
Ширина : 640 пикселей
Высота : 272 пикселя
Соотношение сторон : 2,35:1
Режим частоты кадров : Постоянный
Частота кадров : 25,000 кадров/сек
Цветовое пространство : YUV
Субдискретизация насыщенности : 4:2:0
Битовая глубина : 8 бит
Тип развёртки : Прогрессивная
Бит/(Пиксели*Кадры) : 0.350
Размер потока : 49,3 Мбайт (84%)
Заголовок : Core Media Video
Язык : English
Дата кодирования : UTC 2015-03-24 22:49:27
Дата пометки : UTC 2015-03-24 22:49:27
Цветовой диапазон : Limited
Основные цвета : BT.709
Характеристики трансфера : BT.709
Коэффициенты матрицы : BT.709
Аудио
Идентификатор : 2
Формат : AAC
Формат/Информация : Advanced Audio Codec
Профиль формата : LC
Идентификатор кодека : 40
Продолжительность : 4 м. 31 с.
Продолжительность оригинала : 4 м. 31 с.
Вид битрейта : Постоянный
Битрейт : 256 Кбит/сек
Каналы : 2 канала
Расположение каналов : Front: L R
Частота : 44,1 КГц
Частота кадров : 43,066 кадра/сек (1024 spf)
Метод сжатия : С потерями
Размер потока : 7,99 Мбайт (14%)
Размер потока оригинала : 7,99 Мбайт (14%)
Заголовок : Core Media Audio
Язык : English
Дата кодирования : UTC 2015-03-24 22:49:27
Дата пометки : UTC 2015-03-24 22:49:27

Скриншоты

Вы не можете начинать темы
Вы не можете отвечать на сообщения
Вы не можете редактировать свои сообщения
Вы не можете удалять свои сообщения
Вы не можете голосовать в опросах
Вы не можете прикреплять файлы к сообщениям
Вы можете скачивать файлы
!ВНИМАНИЕ!

Сайт не предоставляет электронные версии произведений, а занимается лишь коллекционированием и каталогизацией ссылок, присылаемых и публикуемых на форуме нашими читателями. Если вы являетесь правообладателем какого-либо представленного материала и не желаете, чтобы ссылка на него находилась в нашем каталоге, свяжитесь с нами, и мы незамедлительно удалим ее. Файлы для обмена на трекере предоставлены пользователями сайта, и администрация не несет ответственности за их содержание. Просьба не заливать файлы, защищенные авторскими правами, а также файлы нелегального содержания!

Искали программы, игры, дополнения, музыка mp3, аниме, аудио книги, журналы? Добро пожаловать на свободный торрент трекер Torrents, у нас можно скачать бесплатно, без смс и регистрации и прочих ограничений лучшие, отборные сборки программ, игр. Скачать торрентом не составит труда даже не опытному пользователю. Раздачи ежедневно обновляются, только лучшие и качественные раздачи, подробные описания и скриншоты. Огромная коллекция программ для работы со звуком, графикой, дизайном, а так же множество плагинов и инструментов к ним с подробной инструкцией и рекомендациями. Прошивки для навигаторов, карты. Разнообразные игры, для Windows, Linux. В коллекцие есть и старые игры любых жанров, Rpg, Action, Shooter, strategy Множество дополнений, модификаций, сценариев для популярных игр в жанре экш, рпг, гонки, стратегии, логические игры. Множество аддонов и сценариев для Microsoft Flight Simulator Большая коллекция книг, учебников. Если нет возможности купить печатное издание - смело скачивайте цифровую версию книги или, быть может, журнала. Не любите читать - можно загрузить бесплатно аудикнигу. Для веб дизайнеров и программистов так же найдется множество специализированного софта, таких как: редакторы с подсветкой, среды программирования, компоненты, системы управления базами данных, разнообразные скрипты и шаблоны. Не так давно у нас появился материал для автолюбителей и владельцев мото - оригинальные и неоригинальные каталоги запчастей, книги и журналы по ремонту и обслуживанию, видеоуроки, статьи по чип тюнингу, прошивкам. Процедура получения контента элементарная, достаточно просто скачать торрент файл и добавить его в загрузку в вашем торрент клиенте. Если у вас нет специального торрент клиента, вы можете его скачать у нас.