Maroon 5 - DVD концерт, видеоклипы / Maroon 5 - It Won\'t Be Soon Before Long (Deluxe Edition) DVD [2008, Music, DVD5, 480x272] 

Цитировать
Maroon 5 - концерт, видеоклипы / Maroon 5 - It Won't Be Soon Before Long (Deluxe Edition) DVD
Год выпуска: 2008
Страна: E.U.
Жанр: Music
Продолжительность: 1ч20м
Источник кодирования: DVD5
Формат: *.m4v
Видео кодек: H.264
аудио кодек: ААС
Разрешение: 480x272
Битрейт: 640 кБ/с
Бит/(Пиксели*Кадры): 0.164
Частота кадров: 29,970 кадр/сек
Аудио: 48000Hz AAC 160k 2ch
Вшитая обложка: есть
Видеоклип: да
Описание:
DVD Maroon 5 - It Won't Be Soon Before Long (Deluxe Edition).
12 треков с концерта в Монреале и 4 видеоклипа.

DISC TWO - DVD

Live From Le Cabaret Montreal, QC, Canada, 06.13.2007
01. If I Never See Your Face Again (04:21)
02. Makes Me Wonder (04:32)
03. Harder To Breathe (02:59)
04. The Sun (08:06)
05. Secret (05:53)
06. Shiver (05:16)
07. Won't Go Home Without You (04:44)
08. Sunday Morning (04:57)
09. Little Of Your Time (03:42)
10. Sweetest Goodbye (09:37)
11. She Will Be Love (04:55)
12. This Love (05:53)
Music Videos
01. Makes Me Wonder (03:50)
02. Wake Up Call (Director's Cut) (03:57)
03. Won't Go Home Without You (04:21)
04. If I Never See Your Face Again (Featuring Rihanna) (03:45)

MediaInfo

10 Live

Общее
Полное имя : I:\Video\Maroon 5\Maroon 5 torrent\live-10 Sweetest Goodbye.m4v
Формат : MPEG-4
Профиль формата : Base Media / Version 2
Идентификатор кодека : mp42
Размер файла : 55,3 Мбайт
Продолжительность : 9 м. 36 с.
Общий поток : 805 Кбит/сек
Название фильма : Sweetest Goodbye
Часть/Положение : 1
Часть/Всего : 1
Дорожка/Положение : 10
Дорожка/Всего : 16
Исполнитель : Maroon 5
Жанр : Music
Дата кодирования : 2007
Дата пометки : UTC 2011-01-29 18:25:55
Программа кодирования : HandBrake 0.9.5 2011010300
Правообладатель : Octoscope Music LL
Обложка : Yes
stik : 6
Видео
Идентификатор : 1
Формат : AVC
Формат/Информация : Advanced Video Codec
Профиль формата : Baseline@L3.0
Параметр CABAC формата : Нет
Параметр ReFrames формата : 1 кадр
Идентификатор кодека : avc1
Идентификатор кодека/Информация : Advanced Video Coding
Продолжительность : 9 м. 36 с.
Вид битрейта : Переменный
Битрейт : 640 Кбит/сек
Ширина : 480 пикс.
Высота : 272 пикс.
Соотношение сторон : 16:9
Режим частоты кадров : Переменный
Частота кадров : 29,970 кадр/сек
Минимальная частота кадров : 22,727 кадр/сек
Максимальная частота кадров : 29,980 кадр/сек
Цветовое пространство : YUV
Подвыборка цветности : 4:2:0
Битовая глубина : 8 бит
Тип развёртки : Прогрессивная
Бит/(Пиксели*Кадры) : 0.164
Размер потока : 44,0 Мбайт (80%)
Библиотека кодирования : x264 core 112
Настройки программы : cabac=0 / ref=1 / deblock=1:0:0 / analyse=0x1:0x131 / me=umh / subme=6 / psy=1 / psy_rd=0.00:0.00 / mixed_ref=0 / me_range=16 / chroma_me=1 / trellis=0 / 8x8dct=0 / cqm=0 / deadzone=21,11 / fast_pskip=0 / chroma_qp_offset=0 / threads=3 / sliced_threads=0 / nr=0 / decimate=1 / interlaced=0 / constrained_intra=0 / bframes=0 / weightp=0 / keyint=300 / keyint_min=29 / scenecut=40 / intra_refresh=0 / rc_lookahead=40 / rc=2pass / mbtree=1 / bitrate=640 / ratetol=1.0 / qcomp=0.60 / qpmin=3 / qpmax=51 / qpstep=4 / cplxblur=20.0 / qblur=0.5 / ip_ratio=1.40 / aq=1:1.00
Дата кодирования : UTC 2011-01-29 08:22:09
Дата пометки : UTC 2011-01-29 08:27:57
Основные цвета : BT.601-6 525, BT.1358 525, BT.1700 NTSC, SMPTE 170M
Характеристики трансфера : BT.709-5, BT.1361
Коэффициенты матрицы : BT.601-6 525, BT.1358 525, BT.1700 NTSC, SMPTE 170M
Аудио
Идентификатор : 2
Формат : AAC
Формат/Информация : Advanced Audio Codec
Профиль формата : LC
Идентификатор кодека : 40
Продолжительность : 9 м. 36 с.
Вид битрейта : Переменный
Битрейт : 160 Кбит/сек
Максимальный битрейт : 183 Кбит/сек
Канал(ы) : 2 канала(ов)
Расположение каналов : Front: L R
Частота : 48,0 КГц
Метод сжатия : С потерями
Размер потока : 11,0 Мбайт (20%)
Дата кодирования : UTC 2011-01-29 08:22:09
Дата пометки : UTC 2011-01-29 12:54:56

04 Video

Общее
Полное имя : I:\Video\Maroon 5\Maroon 5 torrent\video-4 If I Never See Your Face Again (feat Rihanna).m4v
Формат : MPEG-4
Профиль формата : Base Media / Version 2
Идентификатор кодека : mp42
Размер файла : 21,5 Мбайт
Продолжительность : 3 м. 44 с.
Общий поток : 801 Кбит/сек
Название фильма : If I Never See Your Face Again (feat Rihanna)
Альбом : It Won't Be Soon Before Long (Deluxe Edition)
Часть/Положение : 1
Часть/Всего : 1
Дорожка/Положение : 16
Дорожка/Всего : 16
Исполнитель : Maroon 5
Жанр : Music
Дата кодирования : 2008
Дата пометки : UTC 2011-01-29 18:21:45
Программа кодирования : HandBrake 0.9.5 2011010300
Правообладатель : Octoscope Music LL
Обложка : Yes
stik : 6
Видео
Идентификатор : 1
Формат : AVC
Формат/Информация : Advanced Video Codec
Профиль формата : Baseline@L3.0
Параметр CABAC формата : Нет
Параметр ReFrames формата : 1 кадр
Идентификатор кодека : avc1
Идентификатор кодека/Информация : Advanced Video Coding
Продолжительность : 3 м. 44 с.
Вид битрейта : Переменный
Битрейт : 640 Кбит/сек
Ширина : 480 пикс.
Высота : 208 пикс.
Соотношение сторон : 2,35:1
Режим частоты кадров : Переменный
Частота кадров : 29,970 кадр/сек
Минимальная частота кадров : 14,238 кадр/сек
Максимальная частота кадров : 29,970 кадр/сек
Цветовое пространство : YUV
Подвыборка цветности : 4:2:0
Битовая глубина : 8 бит
Тип развёртки : Прогрессивная
Бит/(Пиксели*Кадры) : 0.214
Размер потока : 17,1 Мбайт (80%)
Библиотека кодирования : x264 core 112
Настройки программы : cabac=0 / ref=1 / deblock=1:0:0 / analyse=0x1:0x131 / me=umh / subme=6 / psy=1 / psy_rd=0.00:0.00 / mixed_ref=0 / me_range=16 / chroma_me=1 / trellis=0 / 8x8dct=0 / cqm=0 / deadzone=21,11 / fast_pskip=0 / chroma_qp_offset=0 / threads=3 / sliced_threads=0 / nr=0 / decimate=1 / interlaced=0 / constrained_intra=0 / bframes=0 / weightp=0 / keyint=300 / keyint_min=29 / scenecut=40 / intra_refresh=0 / rc_lookahead=40 / rc=2pass / mbtree=1 / bitrate=640 / ratetol=1.0 / qcomp=0.60 / qpmin=3 / qpmax=51 / qpstep=4 / cplxblur=20.0 / qblur=0.5 / ip_ratio=1.40 / aq=1:1.00
Дата кодирования : UTC 2011-01-28 18:25:50
Дата пометки : UTC 2011-01-28 18:27:50
Основные цвета : BT.601-6 525, BT.1358 525, BT.1700 NTSC, SMPTE 170M
Характеристики трансфера : BT.709-5, BT.1361
Коэффициенты матрицы : BT.601-6 525, BT.1358 525, BT.1700 NTSC, SMPTE 170M
Аудио
Идентификатор : 2
Формат : AAC
Формат/Информация : Advanced Audio Codec
Профиль формата : LC
Идентификатор кодека : 40
Продолжительность : 3 м. 44 с.
Вид битрейта : Переменный
Битрейт : 154 Кбит/сек
Максимальный битрейт : 184 Кбит/сек
Канал(ы) : 2 канала(ов)
Расположение каналов : Front: L R
Частота : 48,0 КГц
Метод сжатия : С потерями
Размер потока : 4,13 Мбайт (19%)
Дата кодирования : UTC 2011-01-28 18:25:50
Дата пометки : UTC 2011-01-28 21:38:01

Скриншоты

Обложка

Вы не можете начинать темы
Вы не можете отвечать на сообщения
Вы не можете редактировать свои сообщения
Вы не можете удалять свои сообщения
Вы не можете голосовать в опросах
Вы не можете прикреплять файлы к сообщениям
Вы можете скачивать файлы
!ВНИМАНИЕ!

Сайт не предоставляет электронные версии произведений, а занимается лишь коллекционированием и каталогизацией ссылок, присылаемых и публикуемых на форуме нашими читателями. Если вы являетесь правообладателем какого-либо представленного материала и не желаете, чтобы ссылка на него находилась в нашем каталоге, свяжитесь с нами, и мы незамедлительно удалим ее. Файлы для обмена на трекере предоставлены пользователями сайта, и администрация не несет ответственности за их содержание. Просьба не заливать файлы, защищенные авторскими правами, а также файлы нелегального содержания!

Искали программы, игры, дополнения, музыка mp3, аниме, аудио книги, журналы? Добро пожаловать на свободный торрент трекер Torrents, у нас можно скачать бесплатно, без смс и регистрации и прочих ограничений лучшие, отборные сборки программ, игр. Скачать торрентом не составит труда даже не опытному пользователю. Раздачи ежедневно обновляются, только лучшие и качественные раздачи, подробные описания и скриншоты. Огромная коллекция программ для работы со звуком, графикой, дизайном, а так же множество плагинов и инструментов к ним с подробной инструкцией и рекомендациями. Прошивки для навигаторов, карты. Разнообразные игры, для Windows, Linux. В коллекцие есть и старые игры любых жанров, Rpg, Action, Shooter, strategy Множество дополнений, модификаций, сценариев для популярных игр в жанре экш, рпг, гонки, стратегии, логические игры. Множество аддонов и сценариев для Microsoft Flight Simulator Большая коллекция книг, учебников. Если нет возможности купить печатное издание - смело скачивайте цифровую версию книги или, быть может, журнала. Не любите читать - можно загрузить бесплатно аудикнигу. Для веб дизайнеров и программистов так же найдется множество специализированного софта, таких как: редакторы с подсветкой, среды программирования, компоненты, системы управления базами данных, разнообразные скрипты и шаблоны. Не так давно у нас появился материал для автолюбителей и владельцев мото - оригинальные и неоригинальные каталоги запчастей, книги и журналы по ремонту и обслуживанию, видеоуроки, статьи по чип тюнингу, прошивкам. Процедура получения контента элементарная, достаточно просто скачать торрент файл и добавить его в загрузку в вашем торрент клиенте. Если у вас нет специального торрент клиента, вы можете его скачать у нас.