Майкл Джексон - концерт в Бухаресте / Dangerous World Tour Live In Bucharest (Майкл Джексон) [1993, Концерт, поп, DVDRip] 

Цитировать
Майкл Джексон - концерт в Бухаресте
Dangerous World Tour Live In Bucharest
-Год выпуска: 1993
Жанр: Концерт, поп
Продолжительность: 02:00:00
Перевод: Не требуется
Русские субтитры: нет
Исполнитель: Майкл Джексон
Описание:
Одно из самых удачных выступлений Майкла Джексона. Много эффектов, истерик и обмороков.
Трек Лист:
01. Main Title
02. Jam
03. Wanna Be Startin' Something
04. Human Nature
05. Smooth Criminal
06. I Just Can't Stop Loving You
07. She's Out Of My Life
08. I Want You Back: The Love You Save
09. I'll Be There
10. Thriller
11. Billie Jean
12. Working Day And Night
13. Beat It
14. Will You Be There
15. Black Or White
16. Heal The World
17. Man In The Mirror
18. Credits-» Качество: DVDRip
» Видео Кодек: Н 264
» Формат: MP4
» Разрешение: 416x320 25.0ps
» Битрейт: 640 Kbps
» Аудио: AAC 128 Kbps 44.1 KHz 2Ch-Доп. информация:- -Майкл Джексон - концерт в Хельсинки
Жить С Майклом Джексоном . Мартин Бэшир берет интервью

MediaInfo

General
Format : MPEG-4
Format profile : Base Media
Codec ID : isom
File size : 662 MiB
Duration : 1h 59mn
Overall bit rate : 772 Kbps
Video
Format : MPEG-4 Visual
Format profile : Simple@L1
Format settings, BVOP : No
Format settings, QPel : No
Format settings, GMC : No warppoints
Format settings, Matrix : Default
Codec ID : 20
Duration : 1h 59mn
Bit rate mode : Variable
Bit rate : 640 Kbps
Width : 416 pixels
Height : 320 pixels
Display aspect ratio : 1.300
Frame rate mode : Constant
Frame rate : 25.000 fps
Resolution : 24 bits
Colorimetry : 4:2:0
Scan type : Progressive
Bits/(Pixel*Frame) : 0.192
Stream size : 549 MiB (83%)
Audio
Format : AAC
Format/Info : Advanced Audio Codec
Format version : Version 4
Format profile : LC
Format settings, SBR : No
Codec ID : 40
Duration : 1h 59mn
Bit rate mode : Variable
Bit rate : 128 Kbps
Channel(s) : 2 channels
Channel positions : L R
Sampling rate : 44.1 KHz
Resolution : 16 bits
Stream size : 110 MiB (17%)

Скриншоты









Мои раздачи в разделе Видео (iPhone, iPod Touch)

-Фильмы
HDRip / BDRip
- -Фильмы
DVDRip
- - -ВидеоКлипы
DVDRip
- -
Вы не можете начинать темы
Вы не можете отвечать на сообщения
Вы не можете редактировать свои сообщения
Вы не можете удалять свои сообщения
Вы не можете голосовать в опросах
Вы не можете прикреплять файлы к сообщениям
Вы можете скачивать файлы
!ВНИМАНИЕ!

Сайт не предоставляет электронные версии произведений, а занимается лишь коллекционированием и каталогизацией ссылок, присылаемых и публикуемых на форуме нашими читателями. Если вы являетесь правообладателем какого-либо представленного материала и не желаете, чтобы ссылка на него находилась в нашем каталоге, свяжитесь с нами, и мы незамедлительно удалим ее. Файлы для обмена на трекере предоставлены пользователями сайта, и администрация не несет ответственности за их содержание. Просьба не заливать файлы, защищенные авторскими правами, а также файлы нелегального содержания!

Искали программы, игры, дополнения, музыка mp3, аниме, аудио книги, журналы? Добро пожаловать на свободный торрент трекер Torrents, у нас можно скачать бесплатно, без смс и регистрации и прочих ограничений лучшие, отборные сборки программ, игр. Скачать торрентом не составит труда даже не опытному пользователю. Раздачи ежедневно обновляются, только лучшие и качественные раздачи, подробные описания и скриншоты. Огромная коллекция программ для работы со звуком, графикой, дизайном, а так же множество плагинов и инструментов к ним с подробной инструкцией и рекомендациями. Прошивки для навигаторов, карты. Разнообразные игры, для Windows, Linux. В коллекцие есть и старые игры любых жанров, Rpg, Action, Shooter, strategy Множество дополнений, модификаций, сценариев для популярных игр в жанре экш, рпг, гонки, стратегии, логические игры. Множество аддонов и сценариев для Microsoft Flight Simulator Большая коллекция книг, учебников. Если нет возможности купить печатное издание - смело скачивайте цифровую версию книги или, быть может, журнала. Не любите читать - можно загрузить бесплатно аудикнигу. Для веб дизайнеров и программистов так же найдется множество специализированного софта, таких как: редакторы с подсветкой, среды программирования, компоненты, системы управления базами данных, разнообразные скрипты и шаблоны. Не так давно у нас появился материал для автолюбителей и владельцев мото - оригинальные и неоригинальные каталоги запчастей, книги и журналы по ремонту и обслуживанию, видеоуроки, статьи по чип тюнингу, прошивкам. Процедура получения контента элементарная, достаточно просто скачать торрент файл и добавить его в загрузку в вашем торрент клиенте. Если у вас нет специального торрент клиента, вы можете его скачать у нас.