(Drum & Bass, Dubstep, Drumfunk) [WEB] Fanu - Spooks, [Lightless Recordings: LIGHTLESSSPOOKS] - 2018, FLAC (tracks), lossless 

Цитировать
Fanu — Spooks (2018, Lightless Recordings)- Жанр: Electronic
Стиль: Drum & Bass, Dubstep, Drumfunk
Формат: WEB, EP
Год издания: 2018
Издатель (лейбл): Lightless Recordings
Номер по каталогу: LIGHTLESSSPOOKS
Страна исполнителя (группы): Finland
Аудиокодек: FLAC (*.flac)
Тип рипа: tracks
Продолжительность: 00:22:59
Источник: найдено в сети (freake.ru)
Наличие сканов в содержимом раздачи: только обложка
-Треклист:
01. Fanu - Spooks [06:10]
02. Fanu - Scorpio Men [06:08]
03. Fanu - The Rise [05:04]
04. Fanu - Octamen [05:37]-Полезные ссылки:
  • MusicBrainz: Fanu — Spooks
  • Bandcamp: Fanu — Spooks
  • Beatport: Fanu — Spooks-

    Лог проверки качества

    -----------------------
    DON'T MODIFY THIS FILE
    -----------------------
    PERFORMER: auCDtect Task Manager, ver. 1.6.0 RC1 build 1.6.0.1Copyright (c) 2008-2010 y-soft. All rights reservedhttp://y-soft.org
    ANALYZER: auCDtect: CD records authenticity detector, version 0.8.2Copyright (c) 2004 Oleg Berngardt. All rights reserved.Copyright (c) 2004 Alexander Djourik. All rights reserved.
    FILE: 04. Octamen.flac Size: 38698649 Hash: 048D13CF0208EA633A41365CCD3CD136 Accuracy: -m0 Conclusion: CDDA 100% Signature: 258525B10E4D867AC68EC55EF8BB18B5468D0E68FILE: 03. The Rise.flac Size: 32258207 Hash: 963B788505D64F884352B8E8F3F3F695 Accuracy: -m0 Conclusion: CDDA 100% Signature: DDA59545432A0E89FFD8D0565EA0373B433A7BEFFILE: 02. Scorpio Men.flac Size: 40481108 Hash: 1994115EB180CD9FD2D55ECAB553877D Accuracy: -m0 Conclusion: CDDA 100% Signature: 0B4D1A41A82022B3C4AFFEA75AFD505AC57E8BDAFILE: 01. Spooks.flac Size: 34009308 Hash: F3A2D09A62B4367FAD87183AA06FE744 Accuracy: -m0 Conclusion: CDDA 100% Signature: 636651ABE7C0CF3DE6CAA7656D060440E7554584

    Скриншот спектра частот

    Замер динамического диапазона (DRM)

    foobar2000 1.3.17 / Dynamic Range Meter 1.1.1log date: 2018-10-04 01:05:43
    --------------------------------------------------------------------------------Analyzed: Fanu / Spooks--------------------------------------------------------------------------------
    DR Peak RMS Duration Track--------------------------------------------------------------------------------DR2 -0.34 dB -4.57 dB 6:11 01-SpooksDR3 -0.34 dB -4.77 dB 6:08 02-Scorpio MenDR3 -0.11 dB -4.16 dB 5:05 03-The RiseDR3 -0.11 dB -4.54 dB 5:37 04-Octamen--------------------------------------------------------------------------------
    Number of tracks: 4Official DR value: DR3
    Samplerate: 44100 HzChannels: 2Bits per sample: 16Bitrate: 916 kbpsCodec: FLAC================================================================================
  • Вы не можете начинать темы
    Вы не можете отвечать на сообщения
    Вы не можете редактировать свои сообщения
    Вы не можете удалять свои сообщения
    Вы не можете голосовать в опросах
    Вы не можете прикреплять файлы к сообщениям
    Вы можете скачивать файлы
    !ВНИМАНИЕ!

    Сайт не предоставляет электронные версии произведений, а занимается лишь коллекционированием и каталогизацией ссылок, присылаемых и публикуемых на форуме нашими читателями. Если вы являетесь правообладателем какого-либо представленного материала и не желаете, чтобы ссылка на него находилась в нашем каталоге, свяжитесь с нами, и мы незамедлительно удалим ее. Файлы для обмена на трекере предоставлены пользователями сайта, и администрация не несет ответственности за их содержание. Просьба не заливать файлы, защищенные авторскими правами, а также файлы нелегального содержания!

    Искали программы, игры, дополнения, музыка mp3, аниме, аудио книги, журналы? Добро пожаловать на свободный торрент трекер Torrents, у нас можно скачать бесплатно, без смс и регистрации и прочих ограничений лучшие, отборные сборки программ, игр. Скачать торрентом не составит труда даже не опытному пользователю. Раздачи ежедневно обновляются, только лучшие и качественные раздачи, подробные описания и скриншоты. Огромная коллекция программ для работы со звуком, графикой, дизайном, а так же множество плагинов и инструментов к ним с подробной инструкцией и рекомендациями. Прошивки для навигаторов, карты. Разнообразные игры, для Windows, Linux. В коллекцие есть и старые игры любых жанров, Rpg, Action, Shooter, strategy Множество дополнений, модификаций, сценариев для популярных игр в жанре экш, рпг, гонки, стратегии, логические игры. Множество аддонов и сценариев для Microsoft Flight Simulator Большая коллекция книг, учебников. Если нет возможности купить печатное издание - смело скачивайте цифровую версию книги или, быть может, журнала. Не любите читать - можно загрузить бесплатно аудикнигу. Для веб дизайнеров и программистов так же найдется множество специализированного софта, таких как: редакторы с подсветкой, среды программирования, компоненты, системы управления базами данных, разнообразные скрипты и шаблоны. Не так давно у нас появился материал для автолюбителей и владельцев мото - оригинальные и неоригинальные каталоги запчастей, книги и журналы по ремонту и обслуживанию, видеоуроки, статьи по чип тюнингу, прошивкам. Процедура получения контента элементарная, достаточно просто скачать торрент файл и добавить его в загрузку в вашем торрент клиенте. Если у вас нет специального торрент клиента, вы можете его скачать у нас.