(Drum and Bass) [CD] Art D.Jay - Polyhedron (Drum\'n\'Bass LP) - 2005, FLAC (image+.cue), lossless 

Цитировать
Art D.Jay / Polyhedron (Drum'n'Bass LP)
Жанр: Drum and Bass
Носитель: CD
Страна-производитель диска (релиза): Россия
Год издания: 2005
Издатель (лейбл): MacroVision Records
Номер по каталогу: MV-075
Аудиокодек: FLAC (*.flac)
Тип рипа: image+.cue
Битрейт аудио: lossless
Продолжительность: 69:35
Источник (релизер): собственный рип
Наличие сканов в содержимом раздачи: да
Треклист:
01. Art D.Jay (Buzzilio) vs. Cyberworm - Mutants (5:19)
02. Art D.Jay - Tualatin (5:55)
03. Art D.Jay vs. E-Beat - Chance To Have A Chance (5:49)
04. Art D.Jay vs. Chet Atkins - Borsalino (3:47)
05. Art D.Jay - Rubber Head (5:40)
06. Jazzamor - Caminho (Art D.Jay Remix) (5:01)
07. Art D.Jay - Gluttony (6:25)
08. Art D.Jay vs. T.Half - Brainfucking (Vip Mix) (4:51)
09. Art D.Jay - Cobra (5:21)
10. Jazzamor - Sai Das (Art D.Jay Remix) (3:15)
11. Art D.Jay - Tualatin (Infuzoria Remix) (7:12)
12. Art D.Jay vs. Elis Regina - Bala Com Bala (4:34)
13. Jazzamor - Einfach Leben (Art D.Jay Remix) (6:27)

Лог создания рипа

Exact Audio Copy V1.3 from 2. September 2016
EAC extraction logfile from 27. October 2018, 21:37
Art D.Jay / Polyhedron (Drum'n'Bass LP)
Used drive : ASUS DRW-24B5ST Adapter: 6 ID: 0
Read mode : SecureUtilize accurate stream : YesDefeat audio cache : YesMake use of C2 pointers : No
Read offset correction : 6Overread into Lead-In and Lead-Out : NoFill up missing offset samples with silence : YesDelete leading and trailing silent blocks : NoNull samples used in CRC calculations : YesUsed interface : Installed external ASPI interface
Used output format : User Defined EncoderSelected bitrate : 128 kBit/sQuality : HighAdd ID3 tag : NoCommand line compressor : D:\flac-1.3.2-win\win64\flac.exeAdditional command line options : -V -8 -T "Date=%year%" -T "COMMENT=ripped by Andy aka yetiisyou" -T "Genre=%genre%" %source%
TOC of the extracted CD
Track | Start | Length | Start sector | End sector --------------------------------------------------------- 1 | 0:00.00 | 5:19.00 | 0 | 23924 2 | 5:19.00 | 5:54.67 | 23925 | 50541 3 | 11:13.67 | 5:49.37 | 50542 | 76753 4 | 17:03.29 | 3:46.43 | 76754 | 93746 5 | 20:49.72 | 5:40.15 | 93747 | 119261 6 | 26:30.12 | 5:00.42 | 119262 | 141803 7 | 31:30.54 | 6:25.04 | 141804 | 170682 8 | 37:55.58 | 4:50.45 | 170683 | 192477 9 | 42:46.28 | 5:21.00 | 192478 | 216552 10 | 48:07.28 | 3:14.41 | 216553 | 231143 11 | 51:21.69 | 7:12.18 | 231144 | 263561 12 | 58:34.12 | 4:34.05 | 263562 | 284116 13 | 63:08.17 | 6:26.67 | 284117 | 313133
Range status and errors
Selected range
Filename E:\!Ripped by Andy aka yetiisyou\Art D.Jay - Polyhedron (Drum'n'Bass LP) [MV075] [2005]\Art D.Jay - Polyhedron (Drum'n'Bass LP).wav
Peak level 100.0 % Extraction speed 6.4 X Range quality 100.0 % Test CRC 58CDF7AF Copy CRC 58CDF7AF Copy OK
No errors occurred
AccurateRip summary
Track 1 not present in databaseTrack 2 not present in databaseTrack 3 not present in databaseTrack 4 not present in databaseTrack 5 not present in databaseTrack 6 not present in databaseTrack 7 not present in databaseTrack 8 not present in databaseTrack 9 not present in databaseTrack 10 not present in databaseTrack 11 not present in databaseTrack 12 not present in databaseTrack 13 not present in database
None of the tracks are present in the AccurateRip database
End of status report
---- CUETools DB Plugin V2.1.6
[CTDB TOCID: 9LzH9RNoucSDK7D1KaPDL2TXsyM-] disk not present in databaseSubmit result: 9LzH9RNoucSDK7D1KaPDL2TXsyM- has been uploaded
==== Log checksum 48148B1450F601227C1B9A14DA2D8CE8E09155155E1C03C247950CD72F7B839F ====
Вы не можете начинать темы
Вы не можете отвечать на сообщения
Вы не можете редактировать свои сообщения
Вы не можете удалять свои сообщения
Вы не можете голосовать в опросах
Вы не можете прикреплять файлы к сообщениям
Вы можете скачивать файлы
!ВНИМАНИЕ!

Сайт не предоставляет электронные версии произведений, а занимается лишь коллекционированием и каталогизацией ссылок, присылаемых и публикуемых на форуме нашими читателями. Если вы являетесь правообладателем какого-либо представленного материала и не желаете, чтобы ссылка на него находилась в нашем каталоге, свяжитесь с нами, и мы незамедлительно удалим ее. Файлы для обмена на трекере предоставлены пользователями сайта, и администрация не несет ответственности за их содержание. Просьба не заливать файлы, защищенные авторскими правами, а также файлы нелегального содержания!

Искали программы, игры, дополнения, музыка mp3, аниме, аудио книги, журналы? Добро пожаловать на свободный торрент трекер Torrents, у нас можно скачать бесплатно, без смс и регистрации и прочих ограничений лучшие, отборные сборки программ, игр. Скачать торрентом не составит труда даже не опытному пользователю. Раздачи ежедневно обновляются, только лучшие и качественные раздачи, подробные описания и скриншоты. Огромная коллекция программ для работы со звуком, графикой, дизайном, а так же множество плагинов и инструментов к ним с подробной инструкцией и рекомендациями. Прошивки для навигаторов, карты. Разнообразные игры, для Windows, Linux. В коллекцие есть и старые игры любых жанров, Rpg, Action, Shooter, strategy Множество дополнений, модификаций, сценариев для популярных игр в жанре экш, рпг, гонки, стратегии, логические игры. Множество аддонов и сценариев для Microsoft Flight Simulator Большая коллекция книг, учебников. Если нет возможности купить печатное издание - смело скачивайте цифровую версию книги или, быть может, журнала. Не любите читать - можно загрузить бесплатно аудикнигу. Для веб дизайнеров и программистов так же найдется множество специализированного софта, таких как: редакторы с подсветкой, среды программирования, компоненты, системы управления базами данных, разнообразные скрипты и шаблоны. Не так давно у нас появился материал для автолюбителей и владельцев мото - оригинальные и неоригинальные каталоги запчастей, книги и журналы по ремонту и обслуживанию, видеоуроки, статьи по чип тюнингу, прошивкам. Процедура получения контента элементарная, достаточно просто скачать торрент файл и добавить его в загрузку в вашем торрент клиенте. Если у вас нет специального торрент клиента, вы можете его скачать у нас.