Pitbull - Don\'t Stop the Party (feat. TJR) [2012, Pop, WEB-DL, 480p] 

Цитировать
Don't Stop the Party (feat. TJR)
Pitbull- Год выпуска: 2012
Издатель (лейбл): ℗ (C) 2012 RCA Records, a division of Sony Music Entertainment
Страна: USA
Жанр: Pop
Продолжительность: 0:03:26
Источник: iTunes Store
Качество: Web-DL
Формат: M4V
Видео кодек: AVC 3.0
Аудио кодек: AAC
Видео: 640x480 @ 853x480 (16:9), 1 553 Kbps, 23.976 fps
Аудио: 256 Kbps, 44100Hz, 2 channels-

MediaInfo

General
Complete name : /Volumes/Data/Music/iTunes/iTunes Media/Music/Pitbull/Unknown Album/Don't Stop the Party (feat. TJR).m4v
Format : MPEG-4
Codec ID : M4V
File size : 45.6 MiB
Duration : 3mn 26s
Overall bit rate : 1 850 Kbps
Movie name : Don't Stop the Party (feat. TJR)
Performer : Pitbull
Genre : Pop
Recorded date : UTC 2012-10-26 07:00:00
Encoded date : UTC 2012-10-30 05:32:02
Tagged date : UTC 2012-10-30 05:32:02
Cover : Yes
apID : itunespp@gmail.com
cnID : 574065943
rtng : 0
atID : 431830279
geID : 1614
sfID : 143503
akID : 0
stik : 6
purd : 2012-10-31 08:38:06
xid : SonyBMG:isrc:USRV81200375
flvr : 6:640x480LC-256
iTunMOVI :  /  /  /  /  asset-info /   /   file-size /   47764542 /   flavor /   6:640x480LC-256 /   screen-format /   widescreen /   /  /
Video
ID : 1
Format : AVC
Format/Info : Advanced Video Codec
Format profile : Baseline@L3.0
Format settings, CABAC : No
Format settings, ReFrames : 1 frame
Codec ID : avc1
Codec ID/Info : Advanced Video Coding
Duration : 3mn 26s
Bit rate : 1 553 Kbps
Width : 640 pixels
Height : 480 pixels
Display aspect ratio : 16:9
Frame rate mode : Constant
Frame rate : 23.976 fps
Color space : YUV
Chroma subsampling : 4:2:0
Bit depth : 8 bits
Scan type : Progressive
Bits/(Pixel*Frame) : 0.211
Stream size : 38.2 MiB (84%)
Language : English
Encoded date : UTC 2012-10-30 05:32:02
Tagged date : UTC 2012-10-30 05:32:02
Color primaries : BT.601-6 525, BT.1358 525, BT.1700 NTSC, SMPTE 170M
Transfer characteristics : BT.709-5, BT.1361
Matrix coefficients : BT.601-6 525, BT.1358 525, BT.1700 NTSC, SMPTE 170M
Audio
ID : 2
Format : AAC
Format/Info : Advanced Audio Codec
Format profile : LC
Codec ID : 40
Duration : 3mn 26s
Source duration : 3mn 26s
Bit rate mode : Constant
Bit rate : 256 Kbps
Channel(s) : 2 channels
Channel positions : Front: L R
Sampling rate : 44.1 KHz
Compression mode : Lossy
Stream size : 6.18 MiB (14%)
Source stream size : 6.18 MiB (14%)
Language : English
Encoded date : UTC 2012-10-30 05:32:02
Tagged date : UTC 2012-10-30 05:32:02

Скриншоты

Вы не можете начинать темы
Вы не можете отвечать на сообщения
Вы не можете редактировать свои сообщения
Вы не можете удалять свои сообщения
Вы не можете голосовать в опросах
Вы не можете прикреплять файлы к сообщениям
Вы можете скачивать файлы
!ВНИМАНИЕ!

Сайт не предоставляет электронные версии произведений, а занимается лишь коллекционированием и каталогизацией ссылок, присылаемых и публикуемых на форуме нашими читателями. Если вы являетесь правообладателем какого-либо представленного материала и не желаете, чтобы ссылка на него находилась в нашем каталоге, свяжитесь с нами, и мы незамедлительно удалим ее. Файлы для обмена на трекере предоставлены пользователями сайта, и администрация не несет ответственности за их содержание. Просьба не заливать файлы, защищенные авторскими правами, а также файлы нелегального содержания!

Искали программы, игры, дополнения, музыка mp3, аниме, аудио книги, журналы? Добро пожаловать на свободный торрент трекер Torrents, у нас можно скачать бесплатно, без смс и регистрации и прочих ограничений лучшие, отборные сборки программ, игр. Скачать торрентом не составит труда даже не опытному пользователю. Раздачи ежедневно обновляются, только лучшие и качественные раздачи, подробные описания и скриншоты. Огромная коллекция программ для работы со звуком, графикой, дизайном, а так же множество плагинов и инструментов к ним с подробной инструкцией и рекомендациями. Прошивки для навигаторов, карты. Разнообразные игры, для Windows, Linux. В коллекцие есть и старые игры любых жанров, Rpg, Action, Shooter, strategy Множество дополнений, модификаций, сценариев для популярных игр в жанре экш, рпг, гонки, стратегии, логические игры. Множество аддонов и сценариев для Microsoft Flight Simulator Большая коллекция книг, учебников. Если нет возможности купить печатное издание - смело скачивайте цифровую версию книги или, быть может, журнала. Не любите читать - можно загрузить бесплатно аудикнигу. Для веб дизайнеров и программистов так же найдется множество специализированного софта, таких как: редакторы с подсветкой, среды программирования, компоненты, системы управления базами данных, разнообразные скрипты и шаблоны. Не так давно у нас появился материал для автолюбителей и владельцев мото - оригинальные и неоригинальные каталоги запчастей, книги и журналы по ремонту и обслуживанию, видеоуроки, статьи по чип тюнингу, прошивкам. Процедура получения контента элементарная, достаточно просто скачать торрент файл и добавить его в загрузку в вашем торрент клиенте. Если у вас нет специального торрент клиента, вы можете его скачать у нас.