Michel Telo (Teló) - Ai Se Eu Te Pego [2012, Pop, WEB-DL, 480p] 

Цитировать
Michel Teló - Ai Se Eu Te Pego- Год выпуска: 2012
Страна: Бразилия
Жанр: Pop
Продолжительность: 00:02:45-Описание: Сингл «Ai Se Eu Te Pego» занимал первые места в чартах Испании, Португалии, Чили, Нидерландах, Италии, Франции и Аргентины. В январе 2012 вышла англоязычная версия песни под названием «If i catch you».-Источник: iTunes
Качество: WEB-DL
Контейнер: M4V
Видео: MPEG4 Video (H264), 640x478 (241:135), 25fps, 1582kbps
Аудио: AAC, 44100 Hz, stereo, 256 kbps-

iTunesMetaTags

Media Type: Music Video
XID: SonyBMG:isrc:BRIMT1100101
Content ID: 482948280
Release Date: 2011-11-29T08:00:00Z
Genre: Pop
Artist: Michel Teló
Name: Ai Se Eu Te Pego
Genre Type: 14
Purchase Date: 2012-03-26 14:34:03
Content Rating: 0
Gapless: Нет
iTunes Account: mb8395@gmail.com
iTunes Account Type: 0
iTunes Country: 143441
Artist ID: 27067490
Genre ID: 1614

MediaInfo

Общее
Полное имя : C:\Users\Desktop\Ai Se Eu Te Pego.m4v
Формат : MPEG-4
Идентификатор кодека : M4V
Размер файла : 37,3 Мбайт
Продолжительность : 2 м. 45 с.
Общий поток : 1891 Кбит/сек
Название фильма : Ai Se Eu Te Pego
Исполнитель : Michel Teló
Жанр : Pop
Дата записи : UTC 2011-11-29 08:00:00
Дата кодирования : UTC 2011-11-22 17:42:05
Дата пометки : UTC 2011-11-22 17:42:06
Обложка : Yes
apID : mb8395@gmail.com
cnID : 482948280
rtng : 0
atID : 27067490
geID : 1614
sfID : 143441
akID : 0
stik : 6
purd : 2012-03-26 14:34:03
xid : SonyBMG:isrc:BRIMT1100101
iTunMOVI : / / / / asset-info / / file-size / 39066834 / flavor / 6:640x480LC-256 / screen-format / widescreen / / /
Видео
Идентификатор : 1
Формат : AVC
Формат/Информация : Advanced Video Codec
Профиль формата : Baseline@L3.0
Параметр CABAC формата : Нет
Параметр ReFrames формата : 1 кадр
Идентификатор кодека : avc1
Идентификатор кодека/Информация : Advanced Video Coding
Продолжительность : 2 м. 45 с.
Битрейт : 1583 Кбит/сек
Ширина : 640 пикселей
Высота : 478 пикселей
Соотношение сторон : 16:9
Режим частоты кадров : Постоянный
Частота кадров : 25,000 кадров/сек
Цветовое пространство : YUV
Субдискретизация насыщенности : 4:2:0
Битовая глубина : 8 бит
Тип развёртки : Прогрессивная
Бит/(Пиксели*Кадры) : 0.207
Размер потока : 31,2 Мбайт (84%)
Язык : English
Дата кодирования : UTC 2011-11-22 17:42:05
Дата пометки : UTC 2011-11-22 17:42:06
Основные цвета : BT.601 NTSC
Характеристики трансфера : BT.709
Коэффициенты матрицы : BT.601
Аудио
Идентификатор : 2
Формат : AAC
Формат/Информация : Advanced Audio Codec
Профиль формата : LC
Идентификатор кодека : 40
Продолжительность : 2 м. 45 с.
Продолжительность оригинала : 2 м. 45 с.
Вид битрейта : Постоянный
Битрейт : 256 Кбит/сек
Каналы : 2 канала
Расположение каналов : Front: L R
Частота : 44,1 КГц
Метод сжатия : С потерями
Размер потока : 4,94 Мбайт (13%)
Размер потока оригинала : 4,94 Мбайт (13%)
Язык : English
Дата кодирования : UTC 2011-11-22 17:42:05
Дата пометки : UTC 2011-11-22 17:42:06

Скриншоты

-
Вы не можете начинать темы
Вы не можете отвечать на сообщения
Вы не можете редактировать свои сообщения
Вы не можете удалять свои сообщения
Вы не можете голосовать в опросах
Вы не можете прикреплять файлы к сообщениям
Вы можете скачивать файлы
!ВНИМАНИЕ!

Сайт не предоставляет электронные версии произведений, а занимается лишь коллекционированием и каталогизацией ссылок, присылаемых и публикуемых на форуме нашими читателями. Если вы являетесь правообладателем какого-либо представленного материала и не желаете, чтобы ссылка на него находилась в нашем каталоге, свяжитесь с нами, и мы незамедлительно удалим ее. Файлы для обмена на трекере предоставлены пользователями сайта, и администрация не несет ответственности за их содержание. Просьба не заливать файлы, защищенные авторскими правами, а также файлы нелегального содержания!

Искали программы, игры, дополнения, музыка mp3, аниме, аудио книги, журналы? Добро пожаловать на свободный торрент трекер Torrents, у нас можно скачать бесплатно, без смс и регистрации и прочих ограничений лучшие, отборные сборки программ, игр. Скачать торрентом не составит труда даже не опытному пользователю. Раздачи ежедневно обновляются, только лучшие и качественные раздачи, подробные описания и скриншоты. Огромная коллекция программ для работы со звуком, графикой, дизайном, а так же множество плагинов и инструментов к ним с подробной инструкцией и рекомендациями. Прошивки для навигаторов, карты. Разнообразные игры, для Windows, Linux. В коллекцие есть и старые игры любых жанров, Rpg, Action, Shooter, strategy Множество дополнений, модификаций, сценариев для популярных игр в жанре экш, рпг, гонки, стратегии, логические игры. Множество аддонов и сценариев для Microsoft Flight Simulator Большая коллекция книг, учебников. Если нет возможности купить печатное издание - смело скачивайте цифровую версию книги или, быть может, журнала. Не любите читать - можно загрузить бесплатно аудикнигу. Для веб дизайнеров и программистов так же найдется множество специализированного софта, таких как: редакторы с подсветкой, среды программирования, компоненты, системы управления базами данных, разнообразные скрипты и шаблоны. Не так давно у нас появился материал для автолюбителей и владельцев мото - оригинальные и неоригинальные каталоги запчастей, книги и журналы по ремонту и обслуживанию, видеоуроки, статьи по чип тюнингу, прошивкам. Процедура получения контента элементарная, достаточно просто скачать торрент файл и добавить его в загрузку в вашем торрент клиенте. Если у вас нет специального торрент клиента, вы можете его скачать у нас.