Аркадий Духин - Случайная любовь [2010, музыка, альтершансон, HDRip, 480x208] 

Цитировать
Аркадий Духин - Случайная любовь
Год выпуска: 2010
Страна: Россия
Жанр: музыка, альтершансон
Продолжительность: 00:05:01
Перевод : Не требуется-Описание:
...Она разъезжала на красной "феррари"
На малолитражной, но очень прикольной
Которую ей подарил ее парень
Работавший старшим курьером в "ЛУКойле"...

Знаете, я 10 лет прожил в Израиле, не могу быть объективным. Но клип израильского певца Аркадия Духина, на песню куртуазного маньериста и поэта Александра Вулых, просто зацепил все пиксели моей души. Так скучно смотреть российские клипы последние годы. Если вообще стоит их смотреть. А тут такая баллада в лучших традициях русского рока или британских песенных историй.
Да и режиссура крайне интересная, разве что конец клипа подкачал.
Вобщем, я просто очарован и не могу не поделиться.
P.S. Аркадий Духин уехал в Израиль в 1978 году из Белоруссии.
Последние годы все больше поет на русском, хотя уже давно популярен среди
израильтян за песни на иврите.
http://www.lookatme.ru/flows/muzyika/posts/112065-arkadiy-duhin-sluchaynaya-lyubov-Качество: HDRip
Формат: *.m4v
Видео кодек: H.264
Аудио кодек: ААС
Разрешение: 480х208
Другие параметры видео: 512 Kbps, 24.000 fps
Аудио: 128 Kbps, 2 channels, 48.0 KHz, 16 bits-

MediaInfo

General
Complete name : Аркадий Духин - Случайная любовь.m4v
Format : MPEG-4
Format profile : Base Media / Version 2
Codec ID : mp42
File size : 23.2 MiB
Duration : 5mn 1s
Overall bit rate : 645 Kbps
Performer : Аркадий Духин
Encoded date : 2010
Tagged date : UTC 2010-12-16 22:17:23
Writing application : HandBrake 0.9.4 2009112300
Video
ID : 1
Format : AVC
Format/Info : Advanced Video Codec
Format profile : Baseline@L3.0
Format settings, CABAC : No
Format settings, ReFrames : 1 frame
Codec ID : avc1
Codec ID/Info : Advanced Video Coding
Duration : 5mn 1s
Bit rate mode : Variable
Bit rate : 512 Kbps
Width : 480 pixels
Height : 208 pixels
Display aspect ratio : 2.35:1
Frame rate mode : Variable
Frame rate : 24.000 fps
Minimum frame rate : 23.810 fps
Maximum frame rate : 24.390 fps
Resolution : 24 bits
Colorimetry : 4:2:0
Scan type : Progressive
Bits/(Pixel*Frame) : 0.214
Stream size : 18.4 MiB (79%)
Writing library : x264 core 79
Encoding settings : cabac=0 / ref=1 / deblock=1:0:0 / analyse=0x1:0x131 / me=umh / subme=6 / psy=1 / psy_rd=0.0:0.0 / mixed_ref=0 / me_range=16 / chroma_me=1 / trellis=0 / 8x8dct=0 / cqm=0 / deadzone=21,11 / chroma_qp_offset=0 / threads=3 / nr=0 / decimate=1 / mbaff=0 / constrained_intra=0 / bframes=0 / wpredp=0 / keyint=240 / keyint_min=24 / scenecut=40 / rc_lookahead=40 / rc=2pass / mbtree=1 / bitrate=512 / ratetol=1.0 / qcomp=0.60 / qpmin=10 / qpmax=51 / qpstep=4 / cplxblur=20.0 / qblur=0.5 / ip_ratio=1.40 / aq=1:1.00
Encoded date : UTC 2010-12-16 22:02:09
Tagged date : UTC 2010-12-16 22:17:23
colour_primaries : BT.709-5, BT.1361, IEC 61966-2-4, SMPTE RP177
transfer_characteristics : BT.709-5, BT.1361
matrix_coefficients : BT.709-5, BT.1361, IEC 61966-2-4 709, SMPTE RP177
Audio
ID : 2
Format : AAC
Format/Info : Advanced Audio Codec
Format version : Version 4
Format profile : LC
Format settings, SBR : No
Codec ID : 40
Duration : 5mn 1s
Bit rate mode : Variable
Bit rate : 128 Kbps
Maximum bit rate : 159 Kbps
Channel(s) : 2 channels
Channel positions : L R
Sampling rate : 48.0 KHz
Resolution : 16 bits
Stream size : 4.60 MiB (20%)
Encoded date : UTC 2010-12-16 22:02:09
Tagged date : UTC 2010-12-16 22:17:23
Text
ID : 3
Format : Apple text
Codec ID : text
Duration : 5mn 1s
Stream size : 14.0 Bytes (0%)
Encoded date : UTC 2010-12-16 22:02:09
Tagged date : UTC 2010-12-16 22:17:23

Скриншоты

Вы не можете начинать темы
Вы не можете отвечать на сообщения
Вы не можете редактировать свои сообщения
Вы не можете удалять свои сообщения
Вы не можете голосовать в опросах
Вы не можете прикреплять файлы к сообщениям
Вы можете скачивать файлы
!ВНИМАНИЕ!

Сайт не предоставляет электронные версии произведений, а занимается лишь коллекционированием и каталогизацией ссылок, присылаемых и публикуемых на форуме нашими читателями. Если вы являетесь правообладателем какого-либо представленного материала и не желаете, чтобы ссылка на него находилась в нашем каталоге, свяжитесь с нами, и мы незамедлительно удалим ее. Файлы для обмена на трекере предоставлены пользователями сайта, и администрация не несет ответственности за их содержание. Просьба не заливать файлы, защищенные авторскими правами, а также файлы нелегального содержания!

Искали программы, игры, дополнения, музыка mp3, аниме, аудио книги, журналы? Добро пожаловать на свободный торрент трекер Torrents, у нас можно скачать бесплатно, без смс и регистрации и прочих ограничений лучшие, отборные сборки программ, игр. Скачать торрентом не составит труда даже не опытному пользователю. Раздачи ежедневно обновляются, только лучшие и качественные раздачи, подробные описания и скриншоты. Огромная коллекция программ для работы со звуком, графикой, дизайном, а так же множество плагинов и инструментов к ним с подробной инструкцией и рекомендациями. Прошивки для навигаторов, карты. Разнообразные игры, для Windows, Linux. В коллекцие есть и старые игры любых жанров, Rpg, Action, Shooter, strategy Множество дополнений, модификаций, сценариев для популярных игр в жанре экш, рпг, гонки, стратегии, логические игры. Множество аддонов и сценариев для Microsoft Flight Simulator Большая коллекция книг, учебников. Если нет возможности купить печатное издание - смело скачивайте цифровую версию книги или, быть может, журнала. Не любите читать - можно загрузить бесплатно аудикнигу. Для веб дизайнеров и программистов так же найдется множество специализированного софта, таких как: редакторы с подсветкой, среды программирования, компоненты, системы управления базами данных, разнообразные скрипты и шаблоны. Не так давно у нас появился материал для автолюбителей и владельцев мото - оригинальные и неоригинальные каталоги запчастей, книги и журналы по ремонту и обслуживанию, видеоуроки, статьи по чип тюнингу, прошивкам. Процедура получения контента элементарная, достаточно просто скачать торрент файл и добавить его в загрузку в вашем торрент клиенте. Если у вас нет специального торрент клиента, вы можете его скачать у нас.