Radiohead - iTunes Video Collection: The King of Limbs: Live from the Basement + Music Videos / Видеоклипы [2011-2017, UK, Alternative, WEB-DL, (480p)] 

Цитировать
Radiohead Жанр: Alternative
Год издания: 2011-2017
Страна: UK
Аудио кодек: aac
Тип рипа: tracks
Битрейт аудио: 256 kbps
Продолжительность: 00:58:01
Источник: iTunes Store
Вшитые тексты: нет
Наличие сканов в содержимом раздачи: нет

The King of Limbs - Live from the Basement

01 Bloom

Качество: WEB-DL
Продолжительность: 00:06:13
Формат: MPEG-4
Видео: H.264, 720 x 480, 25,000 fps, 1526 Kbps, без анаморфа
Аудио: Русский (AAC Stereo, 256 Kbps, 48 KHz)

Отчёт MediaInfo

Общее
Полное имя : F:\Мои Раздачи\!iTunes\Radiohead - iTunes Video Collection\The King of Limbs - Live from the Basement\01 Bloom.m4v
Формат : MPEG-4
Идентификатор кодека : M4V (M4V /mp42/isom)
Размер файла : 80,4 Мбайт
Продолжительность : 6 м. 13 с.
Общий поток : 1804 Кбит/сек
Название фильма : Bloom
Альбом : The King of Limbs - Live from the Basement
Альбом/Исполнитель : Radiohead
Часть/Положение : 1
Часть/Всего : 1
Трек/Положение : 1
Трек/Всего : 11
Исполнитель : Radiohead
Жанр : Альтернативная музыка
Тип содержимого : Music Video
Дата записи : UTC 2011-12-19 08:00:00
Дата кодирования : UTC 2015-03-21 05:15:56
Дата пометки : UTC 2015-03-21 05:15:57
Авторское право : ℗ 2011 Ticker Tape Ltd
Обложка : Yes
Оценка : None
ownr : Евгений Степанов
Flavour : 8:480p
PurchaseDate : 2017-06-22 20:01:18
ITUNEXTC : ||0|
Видео
Идентификатор : 1
Формат : AVC
Формат/Информация : Advanced Video Codec
Профиль формата : Main@L3
Параметр CABAC формата : Нет
Параметр ReFrames формата : 2 кадра
Параметр GOP формата : M=2, N=90
Идентификатор кодека : avc1
Идентификатор кодека/Информация : Advanced Video Coding
Продолжительность : 6 м. 13 с.
Битрейт : 1526 Кбит/сек
Ширина : 720 пикселей
Высота : 480 пикселей
Соотношение сторон : 16:9
Соотношение сторон в оригинале : 16:9
Режим частоты кадров : Постоянный
Частота кадров : 25,000 кадров/сек
Цветовое пространство : YUV
Субдискретизация насыщенности : 4:2:0
Битовая глубина : 8 бит
Тип развёртки : Прогрессивная
Бит/(Пиксели*Кадры) : 0.177
Размер потока : 68,0 Мбайт (85%)
Заголовок : Core Media Video
Язык : English
Дата кодирования : UTC 2015-03-21 05:15:56
Дата пометки : UTC 2015-03-21 05:15:57
Цветовой диапазон : Limited
Основные цвета : BT.709
Характеристики трансфера : BT.709
Коэффициенты матрицы : BT.709
Аудио
Идентификатор : 2
Формат : AAC
Формат/Информация : Advanced Audio Codec
Профиль формата : LC
Идентификатор кодека : 40
Продолжительность : 6 м. 13 с.
Продолжительность оригинала : 6 м. 13 с.
Вид битрейта : Постоянный
Битрейт : 256 Кбит/сек
Каналы : 2 канала
Расположение каналов : Front: L R
Частота : 44,1 КГц
Частота кадров : 43,066 кадра/сек (1024 spf)
Метод сжатия : С потерями
Размер потока : 11,2 Мбайт (14%)
Размер потока оригинала : 11,2 Мбайт (14%)
Заголовок : Core Media Audio
Язык : English
Дата кодирования : UTC 2015-03-21 05:15:56
Дата пометки : UTC 2015-03-21 05:15:57

Скриншоты

02 The Daily Mail

Качество: WEB-DL
Продолжительность: 00:04:10
Формат: MPEG-4
Видео: H.264, 720 x 480, 25,000 fps, 1493 Kbps, без анаморфа
Аудио: Русский (AAC Stereo, 256 Kbps, 48 KHz)

Отчёт MediaInfo

Общее
Полное имя : F:\Мои Раздачи\!iTunes\Radiohead - iTunes Video Collection\The King of Limbs - Live from the Basement\02 The Daily Mail.m4v
Формат : MPEG-4
Идентификатор кодека : M4V (M4V /mp42/isom)
Размер файла : 53,4 Мбайт
Продолжительность : 4 м. 10 с.
Общий поток : 1789 Кбит/сек
Название фильма : The Daily Mail
Альбом : The King of Limbs - Live from the Basement
Альбом/Исполнитель : Radiohead
Часть/Положение : 1
Часть/Всего : 1
Трек/Положение : 2
Трек/Всего : 11
Исполнитель : Radiohead
Жанр : Альтернативная музыка
Тип содержимого : Music Video
Дата записи : UTC 2011-12-19 08:00:00
Дата кодирования : UTC 2015-05-14 08:21:24
Дата пометки : UTC 2015-05-14 08:21:24
Авторское право : ℗ 2011 Ticker Tape Ltd
Обложка : Yes
Оценка : None
ownr : Евгений Степанов
Flavour : 8:480p
PurchaseDate : 2017-06-22 20:01:18
ITUNEXTC : ||0|
Видео
Идентификатор : 1
Формат : AVC
Формат/Информация : Advanced Video Codec
Профиль формата : Main@L3
Параметр CABAC формата : Нет
Параметр ReFrames формата : 2 кадра
Параметр GOP формата : M=2, N=90
Идентификатор кодека : avc1
Идентификатор кодека/Информация : Advanced Video Coding
Продолжительность : 4 м. 10 с.
Битрейт : 1493 Кбит/сек
Ширина : 720 пикселей
Высота : 480 пикселей
Соотношение сторон : 16:9
Соотношение сторон в оригинале : 16:9
Режим частоты кадров : Постоянный
Частота кадров : 25,000 кадров/сек
Цветовое пространство : YUV
Субдискретизация насыщенности : 4:2:0
Битовая глубина : 8 бит
Тип развёртки : Прогрессивная
Бит/(Пиксели*Кадры) : 0.173
Размер потока : 44,6 Мбайт (83%)
Заголовок : Core Media Video
Язык : English
Дата кодирования : UTC 2015-05-14 08:21:24
Дата пометки : UTC 2015-05-14 08:21:24
Цветовой диапазон : Limited
Основные цвета : BT.709
Характеристики трансфера : BT.709
Коэффициенты матрицы : BT.709
Аудио
Идентификатор : 2
Формат : AAC
Формат/Информация : Advanced Audio Codec
Профиль формата : LC
Идентификатор кодека : 40
Продолжительность : 4 м. 10 с.
Продолжительность оригинала : 4 м. 10 с.
Вид битрейта : Постоянный
Битрейт : 256 Кбит/сек
Каналы : 2 канала
Расположение каналов : Front: L R
Частота : 48,0 КГц
Частота кадров : 46,875 кадров/сек (1024 spf)
Метод сжатия : С потерями
Размер потока : 7,66 Мбайт (14%)
Размер потока оригинала : 7,66 Мбайт (14%)
Заголовок : Core Media Audio
Язык : English
Дата кодирования : UTC 2015-05-14 08:21:24
Дата пометки : UTC 2015-05-14 08:21:24

Скриншоты

03 Feral

Качество: WEB-DL
Продолжительность: 00:03:35
Формат: MPEG-4
Видео: H.264, 720 x 480, 25,000 fps, 1503 Кбит/сек Kbps, без анаморфа
Аудио: Русский (AAC Stereo, 256 Kbps, 48 KHz)

Отчёт MediaInfo

Общее
Полное имя : F:\Мои Раздачи\!iTunes\Radiohead - iTunes Video Collection\The King of Limbs - Live from the Basement\03 Feral.m4v
Формат : MPEG-4
Идентификатор кодека : M4V (M4V /mp42/isom)
Размер файла : 46,2 Мбайт
Продолжительность : 3 м. 35 с.
Общий поток : 1800 Кбит/сек
Название фильма : Feral
Альбом : The King of Limbs - Live from the Basement
Альбом/Исполнитель : Radiohead
Часть/Положение : 1
Часть/Всего : 1
Трек/Положение : 3
Трек/Всего : 11
Исполнитель : Radiohead
Жанр : Альтернативная музыка
Тип содержимого : Music Video
Дата записи : UTC 2011-12-19 08:00:00
Дата кодирования : UTC 2015-05-13 09:17:00
Дата пометки : UTC 2015-05-13 09:17:01
Авторское право : ℗ 2011 Ticker Tape Ltd
Обложка : Yes
Оценка : None
ownr : Евгений Степанов
Flavour : 8:480p
PurchaseDate : 2017-06-22 20:01:18
ITUNEXTC : ||0|
Видео
Идентификатор : 1
Формат : AVC
Формат/Информация : Advanced Video Codec
Профиль формата : Main@L3
Параметр CABAC формата : Нет
Параметр ReFrames формата : 2 кадра
Параметр GOP формата : M=2, N=90
Идентификатор кодека : avc1
Идентификатор кодека/Информация : Advanced Video Coding
Продолжительность : 3 м. 35 с.
Битрейт : 1503 Кбит/сек
Ширина : 720 пикселей
Высота : 480 пикселей
Соотношение сторон : 16:9
Соотношение сторон в оригинале : 16:9
Режим частоты кадров : Постоянный
Частота кадров : 25,000 кадров/сек
Цветовое пространство : YUV
Субдискретизация насыщенности : 4:2:0
Битовая глубина : 8 бит
Тип развёртки : Прогрессивная
Бит/(Пиксели*Кадры) : 0.174
Размер потока : 38,6 Мбайт (84%)
Заголовок : Core Media Video
Язык : English
Дата кодирования : UTC 2015-05-13 09:17:00
Дата пометки : UTC 2015-05-13 09:17:01
Цветовой диапазон : Limited
Основные цвета : BT.709
Характеристики трансфера : BT.709
Коэффициенты матрицы : BT.709
Аудио
Идентификатор : 2
Формат : AAC
Формат/Информация : Advanced Audio Codec
Профиль формата : LC
Идентификатор кодека : 40
Продолжительность : 3 м. 35 с.
Продолжительность оригинала : 3 м. 35 с.
Вид битрейта : Постоянный
Битрейт : 256 Кбит/сек
Каналы : 2 канала
Расположение каналов : Front: L R
Частота : 48,0 КГц
Частота кадров : 46,875 кадров/сек (1024 spf)
Метод сжатия : С потерями
Размер потока : 6,49 Мбайт (14%)
Размер потока оригинала : 6,49 Мбайт (14%)
Заголовок : Core Media Audio
Язык : English
Дата кодирования : UTC 2015-05-13 09:17:00
Дата пометки : UTC 2015-05-13 09:17:01

Скриншоты

04 Little By Little

Качество: WEB-DL
Продолжительность: 00:04:47
Формат: MPEG-4
Видео: H.264, 720 x 480, 25,000 fps, 1494 Kbps, без анаморфа
Аудио: Русский (AAC Stereo, 256 Kbps, 48 KHz)

Отчёт MediaInfo

Общее
Полное имя : F:\Мои Раздачи\!iTunes\Radiohead - iTunes Video Collection\The King of Limbs - Live from the Basement\04 Little By Little.m4v
Формат : MPEG-4
Идентификатор кодека : M4V (M4V /mp42/isom)
Размер файла : 61,1 Мбайт
Продолжительность : 4 м. 47 с.
Общий поток : 1780 Кбит/сек
Название фильма : Little By Little
Альбом : The King of Limbs - Live from the Basement
Альбом/Исполнитель : Radiohead
Часть/Положение : 1
Часть/Всего : 1
Трек/Положение : 4
Трек/Всего : 11
Исполнитель : Radiohead
Жанр : Альтернативная музыка
Тип содержимого : Music Video
Дата записи : UTC 2011-12-19 08:00:00
Дата кодирования : UTC 2015-05-16 03:12:15
Дата пометки : UTC 2015-05-16 03:12:16
Авторское право : ℗ 2011 Ticker Tape Ltd
Обложка : Yes
Оценка : None
ownr : Евгений Степанов
Flavour : 8:480p
PurchaseDate : 2017-06-22 20:01:18
ITUNEXTC : ||0|
Видео
Идентификатор : 1
Формат : AVC
Формат/Информация : Advanced Video Codec
Профиль формата : Main@L3
Параметр CABAC формата : Нет
Параметр ReFrames формата : 2 кадра
Параметр GOP формата : M=2, N=90
Идентификатор кодека : avc1
Идентификатор кодека/Информация : Advanced Video Coding
Продолжительность : 4 м. 47 с.
Битрейт : 1494 Кбит/сек
Ширина : 720 пикселей
Высота : 480 пикселей
Соотношение сторон : 16:9
Соотношение сторон в оригинале : 16:9
Режим частоты кадров : Постоянный
Частота кадров : 25,000 кадров/сек
Цветовое пространство : YUV
Субдискретизация насыщенности : 4:2:0
Битовая глубина : 8 бит
Тип развёртки : Прогрессивная
Бит/(Пиксели*Кадры) : 0.173
Размер потока : 51,2 Мбайт (84%)
Заголовок : Core Media Video
Язык : English
Дата кодирования : UTC 2015-05-16 03:12:15
Дата пометки : UTC 2015-05-16 03:12:16
Цветовой диапазон : Limited
Основные цвета : BT.709
Характеристики трансфера : BT.709
Коэффициенты матрицы : BT.709
Аудио
Идентификатор : 2
Формат : AAC
Формат/Информация : Advanced Audio Codec
Профиль формата : LC
Идентификатор кодека : 40
Продолжительность : 4 м. 47 с.
Продолжительность оригинала : 4 м. 47 с.
Вид битрейта : Постоянный
Битрейт : 256 Кбит/сек
Каналы : 2 канала
Расположение каналов : Front: L R
Частота : 48,0 КГц
Частота кадров : 46,875 кадров/сек (1024 spf)
Метод сжатия : С потерями
Размер потока : 8,66 Мбайт (14%)
Размер потока оригинала : 8,66 Мбайт (14%)
Заголовок : Core Media Audio
Язык : English
Дата кодирования : UTC 2015-05-16 03:12:15
Дата пометки : UTC 2015-05-16 03:12:16

Скриншоты

05 Codex

Качество: WEB-DL
Продолжительность: 00:05:09
Формат: MPEG-4
Видео: H.264, 720 x 480, 25,000 fps, 1470 Kbps, без анаморфа
Аудио: Русский (AAC Stereo, 256 Kbps, 48 KHz)

Отчёт MediaInfo

Общее
Полное имя : F:\Мои Раздачи\!iTunes\Radiohead - iTunes Video Collection\The King of Limbs - Live from the Basement\05 Codex.m4v
Формат : MPEG-4
Идентификатор кодека : M4V (M4V /mp42/isom)
Размер файла : 64,9 Мбайт
Продолжительность : 5 м. 9 с.
Общий поток : 1761 Кбит/сек
Название фильма : Codex
Альбом : The King of Limbs - Live from the Basement
Альбом/Исполнитель : Radiohead
Часть/Положение : 1
Часть/Всего : 1
Трек/Положение : 5
Трек/Всего : 11
Исполнитель : Radiohead
Жанр : Альтернативная музыка
Тип содержимого : Music Video
Дата записи : UTC 2011-12-19 08:00:00
Дата кодирования : UTC 2015-03-21 05:02:39
Дата пометки : UTC 2015-03-21 05:02:39
Авторское право : ℗ 2011 Ticker Tape Ltd
Обложка : Yes
Оценка : None
ownr : Евгений Степанов
Flavour : 8:480p
PurchaseDate : 2017-06-22 20:01:18
ITUNEXTC : ||0|
Видео
Идентификатор : 1
Формат : AVC
Формат/Информация : Advanced Video Codec
Профиль формата : Main@L3
Параметр CABAC формата : Нет
Параметр ReFrames формата : 2 кадра
Параметр GOP формата : M=2, N=90
Идентификатор кодека : avc1
Идентификатор кодека/Информация : Advanced Video Coding
Продолжительность : 5 м. 9 с.
Битрейт : 1470 Кбит/сек
Ширина : 720 пикселей
Высота : 480 пикселей
Соотношение сторон : 16:9
Соотношение сторон в оригинале : 16:9
Режим частоты кадров : Постоянный
Частота кадров : 25,000 кадров/сек
Цветовое пространство : YUV
Субдискретизация насыщенности : 4:2:0
Битовая глубина : 8 бит
Тип развёртки : Прогрессивная
Бит/(Пиксели*Кадры) : 0.170
Размер потока : 54,2 Мбайт (84%)
Заголовок : Core Media Video
Язык : English
Дата кодирования : UTC 2015-03-21 05:02:39
Дата пометки : UTC 2015-03-21 05:02:39
Цветовой диапазон : Limited
Основные цвета : BT.709
Характеристики трансфера : BT.709
Коэффициенты матрицы : BT.709
Аудио
Идентификатор : 2
Формат : AAC
Формат/Информация : Advanced Audio Codec
Профиль формата : LC
Идентификатор кодека : 40
Продолжительность : 5 м. 9 с.
Продолжительность оригинала : 5 м. 9 с.
Вид битрейта : Постоянный
Битрейт : 256 Кбит/сек
Каналы : 2 канала
Расположение каналов : Front: L R
Частота : 44,1 КГц
Частота кадров : 43,066 кадра/сек (1024 spf)
Метод сжатия : С потерями
Размер потока : 9,54 Мбайт (15%)
Размер потока оригинала : 9,54 Мбайт (15%)
Заголовок : Core Media Audio
Язык : English
Дата кодирования : UTC 2015-03-21 05:02:39
Дата пометки : UTC 2015-03-21 05:02:39
Дата пометки : UTC 2017-02-27 23:10:06

Скриншоты

06 Separator

Качество: WEB-DL
Продолжительность: 00:06:36
Формат: MPEG-4
Видео: H.264, 720 x 480, 25,000 fps, 1528 Kbps, без анаморфа
Аудио: Русский (AAC Stereo, 256 Kbps, 48 KHz)

Отчёт MediaInfo

Общее
Полное имя : F:\Мои Раздачи\!iTunes\Radiohead - iTunes Video Collection\The King of Limbs - Live from the Basement\06 Separator.m4v
Формат : MPEG-4
Идентификатор кодека : M4V (M4V /mp42/isom)
Размер файла : 85,3 Мбайт
Продолжительность : 6 м. 36 с.
Общий поток : 1805 Кбит/сек
Название фильма : Separator
Альбом : The King of Limbs - Live from the Basement
Альбом/Исполнитель : Radiohead
Часть/Положение : 1
Часть/Всего : 1
Трек/Положение : 6
Трек/Всего : 11
Исполнитель : Radiohead
Жанр : Альтернативная музыка
Тип содержимого : Music Video
Дата записи : UTC 2011-12-19 08:00:00
Дата кодирования : UTC 2015-05-16 03:25:50
Дата пометки : UTC 2015-05-16 03:25:50
Авторское право : ℗ 2011 Ticker Tape Ltd
Обложка : Yes
Оценка : None
ownr : Евгений Степанов
Flavour : 8:480p
PurchaseDate : 2017-06-22 20:01:18
ITUNEXTC : ||0|
Видео
Идентификатор : 1
Формат : AVC
Формат/Информация : Advanced Video Codec
Профиль формата : Main@L3
Параметр CABAC формата : Нет
Параметр ReFrames формата : 2 кадра
Параметр GOP формата : M=2, N=90
Идентификатор кодека : avc1
Идентификатор кодека/Информация : Advanced Video Coding
Продолжительность : 6 м. 36 с.
Битрейт : 1528 Кбит/сек
Ширина : 720 пикселей
Высота : 480 пикселей
Соотношение сторон : 16:9
Соотношение сторон в оригинале : 16:9
Режим частоты кадров : Постоянный
Частота кадров : 25,000 кадров/сек
Цветовое пространство : YUV
Субдискретизация насыщенности : 4:2:0
Битовая глубина : 8 бит
Тип развёртки : Прогрессивная
Бит/(Пиксели*Кадры) : 0.177
Размер потока : 72,2 Мбайт (85%)
Заголовок : Core Media Video
Язык : English
Дата кодирования : UTC 2015-05-16 03:25:50
Дата пометки : UTC 2015-05-16 03:25:50
Цветовой диапазон : Limited
Основные цвета : BT.709
Характеристики трансфера : BT.709
Коэффициенты матрицы : BT.709
Аудио
Идентификатор : 2
Формат : AAC
Формат/Информация : Advanced Audio Codec
Профиль формата : LC
Идентификатор кодека : 40
Продолжительность : 6 м. 36 с.
Продолжительность оригинала : 6 м. 36 с.
Вид битрейта : Постоянный
Битрейт : 256 Кбит/сек
Каналы : 2 канала
Расположение каналов : Front: L R
Частота : 48,0 КГц
Частота кадров : 46,875 кадров/сек (1024 spf)
Метод сжатия : С потерями
Размер потока : 11,9 Мбайт (14%)
Размер потока оригинала : 11,9 Мбайт (14%)
Заголовок : Core Media Audio
Язык : English
Дата кодирования : UTC 2015-05-16 03:25:50
Дата пометки : UTC 2015-05-16 03:25:50

Скриншоты

07 Lotus Flower

Качество: WEB-DL
Продолжительность: 00:05:43
Формат: MPEG-4
Видео: H.264, 720 x 354, 25,000 fps, 1523 Kbps, без анаморфа
Аудио: Русский (AAC Stereo, 256 Kbps, 48 KHz)

Отчёт MediaInfo

Общее
Полное имя : F:\Мои Раздачи\!iTunes\Radiohead - iTunes Video Collection\The King of Limbs - Live from the Basement\07 Lotus Flower.m4v
Формат : MPEG-4
Идентификатор кодека : M4V (M4V /mp42/isom)
Размер файла : 74,0 Мбайт
Продолжительность : 5 м. 43 с.
Общий поток : 1805 Кбит/сек
Название фильма : Lotus Flower
Альбом : The King of Limbs - Live from the Basement
Альбом/Исполнитель : Radiohead
Часть/Положение : 1
Часть/Всего : 1
Трек/Положение : 7
Трек/Всего : 11
Исполнитель : Radiohead
Жанр : Альтернативная музыка
Тип содержимого : Music Video
Дата записи : UTC 2011-12-19 08:00:00
Дата кодирования : UTC 2015-05-16 03:18:49
Дата пометки : UTC 2015-05-16 03:18:49
Авторское право : ℗ 2011 Ticker Tape Ltd
Обложка : Yes
Оценка : None
ownr : Евгений Степанов
Flavour : 8:480p
PurchaseDate : 2017-06-22 20:01:18
ITUNEXTC : ||0|
Видео
Идентификатор : 1
Формат : AVC
Формат/Информация : Advanced Video Codec
Профиль формата : Main@L3
Параметр CABAC формата : Нет
Параметр ReFrames формата : 2 кадра
Параметр GOP формата : M=2, N=90
Идентификатор кодека : avc1
Идентификатор кодека/Информация : Advanced Video Coding
Продолжительность : 5 м. 43 с.
Битрейт : 1523 Кбит/сек
Ширина : 720 пикселей
Высота : 480 пикселей
Соотношение сторон : 16:9
Соотношение сторон в оригинале : 16:9
Режим частоты кадров : Постоянный
Частота кадров : 25,000 кадров/сек
Цветовое пространство : YUV
Субдискретизация насыщенности : 4:2:0
Битовая глубина : 8 бит
Тип развёртки : Прогрессивная
Бит/(Пиксели*Кадры) : 0.176
Размер потока : 62,4 Мбайт (84%)
Заголовок : Core Media Video
Язык : English
Дата кодирования : UTC 2015-05-16 03:18:49
Дата пометки : UTC 2015-05-16 03:18:49
Цветовой диапазон : Limited
Основные цвета : BT.709
Характеристики трансфера : BT.709
Коэффициенты матрицы : BT.709
Аудио
Идентификатор : 2
Формат : AAC
Формат/Информация : Advanced Audio Codec
Профиль формата : LC
Идентификатор кодека : 40
Продолжительность : 5 м. 43 с.
Продолжительность оригинала : 5 м. 43 с.
Вид битрейта : Постоянный
Битрейт : 256 Кбит/сек
Каналы : 2 канала
Расположение каналов : Front: L R
Частота : 48,0 КГц
Частота кадров : 46,875 кадров/сек (1024 spf)
Метод сжатия : С потерями
Размер потока : 10,4 Мбайт (14%)
Размер потока оригинала : 10,4 Мбайт (14%)
Заголовок : Core Media Audio
Язык : English
Дата кодирования : UTC 2015-05-16 03:18:49
Дата пометки : UTC 2015-05-16 03:18:49

Скриншоты

08 Staircase

Качество: WEB-DL
Продолжительность: 00:05:06
Формат: MPEG-4
Видео: H.264, 720 x 362, 25,000 fps, 1535 Kbps, без анаморфа
Аудио: Русский (AAC Stereo, 256 Kbps, 48 KHz)

Отчёт MediaInfo

Общее
Полное имя : F:\Мои Раздачи\!iTunes\Radiohead - iTunes Video Collection\The King of Limbs - Live from the Basement\08 Staircase.m4v
Формат : MPEG-4
Идентификатор кодека : M4V (M4V /mp42/isom)
Размер файла : 66,7 Мбайт
Продолжительность : 5 м. 6 с.
Общий поток : 1825 Кбит/сек
Название фильма : Staircase
Альбом : The King of Limbs - Live from the Basement
Альбом/Исполнитель : Radiohead
Часть/Положение : 1
Часть/Всего : 1
Трек/Положение : 8
Трек/Всего : 11
Исполнитель : Radiohead
Жанр : Альтернативная музыка
Тип содержимого : Music Video
Дата записи : UTC 2011-12-19 08:00:00
Дата кодирования : UTC 2015-05-14 08:31:42
Дата пометки : UTC 2015-05-14 08:31:42
Авторское право : ℗ 2011 Ticker Tape Ltd
Обложка : Yes
Оценка : None
ownr : Евгений Степанов
Flavour : 8:480p
PurchaseDate : 2017-06-22 20:01:18
ITUNEXTC : ||0|
Видео
Идентификатор : 1
Формат : AVC
Формат/Информация : Advanced Video Codec
Профиль формата : Main@L3
Параметр CABAC формата : Нет
Параметр ReFrames формата : 2 кадра
Параметр GOP формата : M=2, N=90
Идентификатор кодека : avc1
Идентификатор кодека/Информация : Advanced Video Coding
Продолжительность : 5 м. 6 с.
Битрейт : 1535 Кбит/сек
Ширина : 720 пикселей
Высота : 480 пикселей
Соотношение сторон : 16:9
Соотношение сторон в оригинале : 16:9
Режим частоты кадров : Постоянный
Частота кадров : 25,000 кадров/сек
Цветовое пространство : YUV
Субдискретизация насыщенности : 4:2:0
Битовая глубина : 8 бит
Тип развёртки : Прогрессивная
Бит/(Пиксели*Кадры) : 0.178
Размер потока : 56,1 Мбайт (84%)
Заголовок : Core Media Video
Язык : English
Дата кодирования : UTC 2015-05-14 08:31:42
Дата пометки : UTC 2015-05-14 08:31:42
Цветовой диапазон : Limited
Основные цвета : BT.709
Характеристики трансфера : BT.709
Коэффициенты матрицы : BT.709
Аудио
Идентификатор : 2
Формат : AAC
Формат/Информация : Advanced Audio Codec
Профиль формата : LC
Идентификатор кодека : 40
Продолжительность : 5 м. 6 с.
Продолжительность оригинала : 5 м. 6 с.
Вид битрейта : Постоянный
Битрейт : 256 Кбит/сек
Каналы : 2 канала
Расположение каналов : Front: L R
Частота : 48,0 КГц
Частота кадров : 46,875 кадров/сек (1024 spf)
Метод сжатия : С потерями
Размер потока : 9,46 Мбайт (14%)
Размер потока оригинала : 9,46 Мбайт (14%)
Заголовок : Core Media Audio
Язык : English
Дата кодирования : UTC 2015-05-14 08:31:42
Дата пометки : UTC 2015-05-14 08:31:42

Скриншоты

09 Morning Mr. Magpie

Качество: WEB-DL
Продолжительность: 00:05:46
Формат: MPEG-4
Видео: H.264, 720 x 480, 25,000 fps, 1490 Kbps, без анаморфа
Аудио: Русский (AAC Stereo, 256 Kbps, 48 KHz)

Отчёт MediaInfo

Общее
Полное имя : F:\Мои Раздачи\!iTunes\Radiohead - iTunes Video Collection\The King of Limbs - Live from the Basement\09 Morning Mr. Magpie.m4v
Формат : MPEG-4
Идентификатор кодека : M4V (M4V /mp42/isom)
Размер файла : 73,3 Мбайт
Продолжительность : 5 м. 46 с.
Общий поток : 1775 Кбит/сек
Название фильма : Morning Mr. Magpie
Альбом : The King of Limbs - Live from the Basement
Альбом/Исполнитель : Radiohead
Часть/Положение : 1
Часть/Всего : 1
Трек/Положение : 9
Трек/Всего : 11
Исполнитель : Radiohead
Жанр : Альтернативная музыка
Тип содержимого : Music Video
Дата записи : UTC 2011-12-19 08:00:00
Дата кодирования : UTC 2015-05-16 03:13:46
Дата пометки : UTC 2015-05-16 03:13:46
Авторское право : ℗ 2011 Ticker Tape Ltd
Обложка : Yes
Оценка : None
ownr : Евгений Степанов
Flavour : 8:480p
PurchaseDate : 2017-06-22 20:01:18
ITUNEXTC : ||0|
Видео
Идентификатор : 1
Формат : AVC
Формат/Информация : Advanced Video Codec
Профиль формата : Main@L3
Параметр CABAC формата : Нет
Параметр ReFrames формата : 2 кадра
Параметр GOP формата : M=2, N=90
Идентификатор кодека : avc1
Идентификатор кодека/Информация : Advanced Video Coding
Продолжительность : 5 м. 46 с.
Битрейт : 1490 Кбит/сек
Ширина : 720 пикселей
Высота : 480 пикселей
Соотношение сторон : 16:9
Соотношение сторон в оригинале : 16:9
Режим частоты кадров : Постоянный
Частота кадров : 25,000 кадров/сек
Цветовое пространство : YUV
Субдискретизация насыщенности : 4:2:0
Битовая глубина : 8 бит
Тип развёртки : Прогрессивная
Бит/(Пиксели*Кадры) : 0.172
Размер потока : 61,5 Мбайт (84%)
Заголовок : Core Media Video
Язык : English
Дата кодирования : UTC 2015-05-16 03:13:46
Дата пометки : UTC 2015-05-16 03:13:46
Цветовой диапазон : Limited
Основные цвета : BT.709
Характеристики трансфера : BT.709
Коэффициенты матрицы : BT.709
Аудио
Идентификатор : 2
Формат : AAC
Формат/Информация : Advanced Audio Codec
Профиль формата : LC
Идентификатор кодека : 40
Продолжительность : 5 м. 46 с.
Продолжительность оригинала : 5 м. 46 с.
Вид битрейта : Постоянный
Битрейт : 256 Кбит/сек
Каналы : 2 канала
Расположение каналов : Front: L R
Частота : 48,0 КГц
Частота кадров : 46,875 кадров/сек (1024 spf)
Метод сжатия : С потерями
Размер потока : 10,6 Мбайт (14%)
Размер потока оригинала : 10,6 Мбайт (14%)
Заголовок : Core Media Audio
Язык : English
Дата кодирования : UTC 2015-05-16 03:13:46
Дата пометки : UTC 2015-05-16 03:13:46

Скриншоты

10 Give Up the Ghost

Качество: WEB-DL
Продолжительность: 00:05:53
Формат: MPEG-4
Видео: H.264, 720 x 480, 25,000 fps, 1470 Kbps, без анаморфа
Аудио: Русский (AAC Stereo, 256 Kbps, 48 KHz)

Отчёт MediaInfo

Общее
Полное имя : F:\Мои Раздачи\!iTunes\Radiohead - iTunes Video Collection\The King of Limbs - Live from the Basement\10 Give Up the Ghost.m4v
Формат : MPEG-4
Идентификатор кодека : M4V (M4V /mp42/isom)
Размер файла : 73,8 Мбайт
Продолжительность : 5 м. 53 с.
Общий поток : 1752 Кбит/сек
Название фильма : Give Up the Ghost
Альбом : The King of Limbs - Live from the Basement
Альбом/Исполнитель : Radiohead
Часть/Положение : 1
Часть/Всего : 1
Трек/Положение : 10
Трек/Всего : 11
Исполнитель : Radiohead
Жанр : Альтернативная музыка
Тип содержимого : Music Video
Дата записи : UTC 2011-12-19 08:00:00
Дата кодирования : UTC 2015-05-16 03:16:30
Дата пометки : UTC 2015-05-16 03:16:30
Авторское право : ℗ 2011 Ticker Tape Ltd
Обложка : Yes
Оценка : None
ownr : Евгений Степанов
Flavour : 8:480p
PurchaseDate : 2017-06-22 20:01:18
ITUNEXTC : ||0|
Видео
Идентификатор : 1
Формат : AVC
Формат/Информация : Advanced Video Codec
Профиль формата : Main@L3
Параметр CABAC формата : Нет
Параметр ReFrames формата : 2 кадра
Параметр GOP формата : M=2, N=90
Идентификатор кодека : avc1
Идентификатор кодека/Информация : Advanced Video Coding
Продолжительность : 5 м. 53 с.
Битрейт : 1470 Кбит/сек
Ширина : 720 пикселей
Высота : 480 пикселей
Соотношение сторон : 16:9
Соотношение сторон в оригинале : 16:9
Режим частоты кадров : Постоянный
Частота кадров : 25,000 кадров/сек
Цветовое пространство : YUV
Субдискретизация насыщенности : 4:2:0
Битовая глубина : 8 бит
Тип развёртки : Прогрессивная
Бит/(Пиксели*Кадры) : 0.170
Размер потока : 61,9 Мбайт (84%)
Заголовок : Core Media Video
Язык : English
Дата кодирования : UTC 2015-05-16 03:16:30
Дата пометки : UTC 2015-05-16 03:16:30
Цветовой диапазон : Limited
Основные цвета : BT.709
Характеристики трансфера : BT.709
Коэффициенты матрицы : BT.709
Аудио
Идентификатор : 2
Формат : AAC
Формат/Информация : Advanced Audio Codec
Профиль формата : LC
Идентификатор кодека : 40
Продолжительность : 5 м. 53 с.
Продолжительность оригинала : 5 м. 53 с.
Вид битрейта : Постоянный
Битрейт : 256 Кбит/сек
Каналы : 2 канала
Расположение каналов : Front: L R
Частота : 48,0 КГц
Частота кадров : 46,875 кадров/сек (1024 spf)
Метод сжатия : С потерями
Размер потока : 10,7 Мбайт (14%)
Размер потока оригинала : 10,7 Мбайт (14%)
Заголовок : Core Media Audio
Язык : English
Дата кодирования : UTC 2015-05-16 03:16:30
Дата пометки : UTC 2015-05-16 03:16:30

Скриншоты

11 Supercollider

Качество: WEB-DL
Продолжительность: 00:05:41
Формат: MPEG-4
Видео: H.264, 720 x 480, 25,000 fps, 1522 Kbps, без анаморфа
Аудио: Русский (AAC Stereo, 256 Kbps, 48 KHz)

Отчёт MediaInfo

Общее
Полное имя : F:\Мои Раздачи\!iTunes\Radiohead - iTunes Video Collection\The King of Limbs - Live from the Basement\11 Supercollider.m4v
Формат : MPEG-4
Идентификатор кодека : M4V (M4V /mp42/isom)
Размер файла : 73,4 Мбайт
Продолжительность : 5 м. 41 с.
Общий поток : 1804 Кбит/сек
Название фильма : Supercollider
Альбом : The King of Limbs - Live from the Basement
Альбом/Исполнитель : Radiohead
Часть/Положение : 1
Часть/Всего : 1
Трек/Положение : 11
Трек/Всего : 11
Исполнитель : Radiohead
Жанр : Альтернативная музыка
Тип содержимого : Music Video
Дата записи : UTC 2011-12-19 08:00:00
Дата кодирования : UTC 2015-05-13 09:30:02
Дата пометки : UTC 2015-05-13 09:30:02
Авторское право : ℗ 2011 Ticker Tape Ltd
Обложка : Yes
Оценка : None
ownr : Евгений Степанов
Flavour : 8:480p
PurchaseDate : 2017-06-22 20:01:18
ITUNEXTC : ||0|
Видео
Идентификатор : 1
Формат : AVC
Формат/Информация : Advanced Video Codec
Профиль формата : Main@L3
Параметр CABAC формата : Нет
Параметр ReFrames формата : 2 кадра
Параметр GOP формата : M=2, N=90
Идентификатор кодека : avc1
Идентификатор кодека/Информация : Advanced Video Coding
Продолжительность : 5 м. 41 с.
Битрейт : 1522 Кбит/сек
Ширина : 720 пикселей
Высота : 480 пикселей
Соотношение сторон : 16:9
Соотношение сторон в оригинале : 16:9
Режим частоты кадров : Постоянный
Частота кадров : 25,000 кадров/сек
Цветовое пространство : YUV
Субдискретизация насыщенности : 4:2:0
Битовая глубина : 8 бит
Тип развёртки : Прогрессивная
Бит/(Пиксели*Кадры) : 0.176
Размер потока : 61,9 Мбайт (84%)
Заголовок : Core Media Video
Язык : English
Дата кодирования : UTC 2015-05-13 09:30:02
Дата пометки : UTC 2015-05-13 09:30:02
Цветовой диапазон : Limited
Основные цвета : BT.709
Характеристики трансфера : BT.709
Коэффициенты матрицы : BT.709
Аудио
Идентификатор : 2
Формат : AAC
Формат/Информация : Advanced Audio Codec
Профиль формата : LC
Идентификатор кодека : 40
Продолжительность : 5 м. 41 с.
Продолжительность оригинала : 5 м. 41 с.
Вид битрейта : Постоянный
Битрейт : 256 Кбит/сек
Каналы : 2 канала
Расположение каналов : Front: L R
Частота : 48,0 КГц
Частота кадров : 46,875 кадров/сек (1024 spf)
Метод сжатия : С потерями
Размер потока : 10,3 Мбайт (14%)
Размер потока оригинала : 10,3 Мбайт (14%)
Заголовок : Core Media Audio
Язык : English
Дата кодирования : UTC 2015-05-13 09:30:02
Дата пометки : UTC 2015-05-13 09:30:02

Скриншоты

Music Videos

2016 - Burn the Witch

Качество: WEB-DL
Продолжительность: 00:03:59
Формат: MPEG-4
Видео: H.264, 646 x 480, 25,000 fps, 1470 Kbps, без анаморфа
Аудио: Русский (AAC Stereo, 256 Kbps, 48 KHz)

Отчёт MediaInfo

Общее
Полное имя : F:\Мои Раздачи\!iTunes\Radiohead - iTunes Video Collection\Music Videos\2016 - Burn the Witch.m4v
Формат : MPEG-4
Идентификатор кодека : M4V (M4V /mp42/isom)
Размер файла : 50,4 Мбайт
Продолжительность : 3 м. 59 с.
Режим общего битрейта : Переменный
Общий поток : 1766 Кбит/сек
Название фильма : Burn the Witch
Альбом : A Moon Shaped Pool
Альбом/Исполнитель : Radiohead
Исполнитель : Radiohead
Жанр : Альтернативная музыка
Тип содержимого : Music Video
Дата записи : UTC 2016-05-04 07:00:00
Дата кодирования : UTC 2016-05-08 11:48:32
Дата пометки : UTC 2016-05-08 11:48:33
Авторское право : ℗ 2016 LLLP LLP under exclusive license to XL Recordings Ltd.
Обложка : Yes
Оценка : None
ownr : Евгений Степанов
Flavour : 8:480p
PurchaseDate : 2017-06-22 20:05:49
ITUNEXTC : ||0|
Видео
Идентификатор : 1
Формат : AVC
Формат/Информация : Advanced Video Codec
Профиль формата : Main@L3
Параметр CABAC формата : Нет
Параметр ReFrames формата : 2 кадра
Параметр GOP формата : M=2, N=90
Идентификатор кодека : avc1
Идентификатор кодека/Информация : Advanced Video Coding
Продолжительность : 3 м. 59 с.
Битрейт : 1474 Кбит/сек
Ширина : 646 пикселей
Высота : 480 пикселей
Соотношение сторон : 4:3
Режим частоты кадров : Постоянный
Частота кадров : 25,000 кадров/сек
Цветовое пространство : YUV
Субдискретизация насыщенности : 4:2:0
Битовая глубина : 8 бит
Тип развёртки : Прогрессивная
Бит/(Пиксели*Кадры) : 0.190
Размер потока : 42,0 Мбайт (83%)
Заголовок : Core Media Video
Язык : English
Дата кодирования : UTC 2016-05-08 11:48:32
Дата пометки : UTC 2016-05-08 11:48:33
Цветовой диапазон : Limited
Основные цвета : BT.709
Характеристики трансфера : BT.709
Коэффициенты матрицы : BT.709
Аудио
Идентификатор : 2
Формат : AAC
Формат/Информация : Advanced Audio Codec
Профиль формата : LC
Идентификатор кодека : 40
Продолжительность : 3 м. 59 с.
Продолжительность оригинала : 3 м. 59 с.
Вид битрейта : Переменный
Битрейт : 256 Кбит/сек
Максимальный битрейт : 424 Кбит/сек
Каналы : 2 канала
Расположение каналов : Front: L R
Частота : 48,0 КГц
Частота кадров : 46,875 кадров/сек (1024 spf)
Метод сжатия : С потерями
Размер потока : 7,20 Мбайт (14%)
Размер потока оригинала : 7,20 Мбайт (14%)
Заголовок : Core Media Audio
Язык : English
Дата кодирования : UTC 2016-05-08 11:48:32
Дата пометки : UTC 2016-05-08 11:48:33

Скриншоты

2016 - Daydreaming

Качество: WEB-DL
Продолжительность: 00:06:26
Формат: MPEG-4
Видео: H.264, 720 x 472, 25,000 fps, 1470 Kbps, без анаморфа
Аудио: Русский (AAC Stereo, 256 Kbps, 48 KHz)

Отчёт MediaInfo

Общее
Полное имя : F:\Мои Раздачи\!iTunes\Radiohead - iTunes Video Collection\Music Videos\2016 - Daydreaming.m4v
Формат : MPEG-4
Идентификатор кодека : M4V (M4V /mp42/isom)
Размер файла : 81,7 Мбайт
Продолжительность : 6 м. 26 с.
Режим общего битрейта : Переменный
Общий поток : 1775 Кбит/сек
Название фильма : Daydreaming
Альбом : A Moon Shaped Pool
Альбом/Исполнитель : Radiohead
Исполнитель : Radiohead
Жанр : Альтернативная музыка
Тип содержимого : Music Video
Дата записи : UTC 2016-05-07 07:00:00
Дата кодирования : UTC 2016-05-08 12:41:49
Дата пометки : UTC 2016-05-08 12:41:50
Авторское право : ℗ 2016 LLLP LLP under exclusive license to XL Recordings Ltd.
Обложка : Yes
Оценка : None
ownr : Евгений Степанов
Flavour : 8:480p
PurchaseDate : 2017-06-22 20:05:13
ITUNEXTC : ||0|
Видео
Идентификатор : 1
Формат : AVC
Формат/Информация : Advanced Video Codec
Профиль формата : Main@L3
Параметр CABAC формата : Нет
Параметр ReFrames формата : 2 кадра
Параметр GOP формата : M=2, N=90
Идентификатор кодека : avc1
Идентификатор кодека/Информация : Advanced Video Coding
Продолжительность : 6 м. 26 с.
Битрейт : 1490 Кбит/сек
Ширина : 720 пикселей
Высота : 472 пикселя
Соотношение сторон : 16:9
Режим частоты кадров : Постоянный
Частота кадров : 25,000 кадров/сек
Цветовое пространство : YUV
Субдискретизация насыщенности : 4:2:0
Битовая глубина : 8 бит
Тип развёртки : Прогрессивная
Бит/(Пиксели*Кадры) : 0.175
Размер потока : 68,6 Мбайт (84%)
Заголовок : Core Media Video
Язык : English
Дата кодирования : UTC 2016-05-08 12:41:49
Дата пометки : UTC 2016-05-08 12:41:50
Цветовой диапазон : Limited
Основные цвета : BT.709
Характеристики трансфера : BT.709
Коэффициенты матрицы : BT.709
Аудио
Идентификатор : 2
Формат : AAC
Формат/Информация : Advanced Audio Codec
Профиль формата : LC
Идентификатор кодека : 40
Продолжительность : 6 м. 26 с.
Продолжительность оригинала : 6 м. 26 с.
Вид битрейта : Переменный
Битрейт : 256 Кбит/сек
Максимальный битрейт : 327 Кбит/сек
Каналы : 2 канала
Расположение каналов : Front: L R
Частота : 48,0 КГц
Частота кадров : 46,875 кадров/сек (1024 spf)
Метод сжатия : С потерями
Размер потока : 11,9 Мбайт (15%)
Размер потока оригинала : 11,9 Мбайт (15%)
Заголовок : Core Media Audio
Язык : English
Дата кодирования : UTC 2016-05-08 12:41:49
Дата пометки : UTC 2016-05-08 12:41:50

Скриншоты

2016 - Present Tense: Jonny, Thom & a CR78

Качество: WEB-DL
Продолжительность: 00:05:25
Формат: MPEG-4
Видео: H.264, 720 x 480, 25,000 fps, 1470 Kbps, без анаморфа
Аудио: Русский (AAC Stereo, 256 Kbps, 48 KHz)

Отчёт MediaInfo

Общее
Полное имя : F:\Мои Раздачи\!iTunes\Radiohead - iTunes Video Collection\Music Videos\2016 - Present Tense_ Jonny, Thom & a CR78.m4v
Формат : MPEG-4
Идентификатор кодека : M4V (M4V /mp42/isom)
Размер файла : 69,2 Мбайт
Продолжительность : 5 м. 25 с.
Режим общего битрейта : Переменный
Общий поток : 1784 Кбит/сек
Название фильма : Present Tense: Jonny, Thom & a CR78
Альбом/Исполнитель : Radiohead
Исполнитель : Radiohead
Жанр : Альтернативная музыка
Тип содержимого : Music Video
Дата записи : UTC 2016-09-15 07:00:00
Дата кодирования : UTC 2016-09-19 15:29:17
Дата пометки : UTC 2016-09-19 15:29:18
Авторское право : ℗ 2016 XL Recordings Limited.
Обложка : Yes
Оценка : None
ownr : Евгений Степанов
Flavour : 8:480p
PurchaseDate : 2017-06-22 20:12:14
ITUNEXTC : ||0|
Видео
Идентификатор : 1
Формат : AVC
Формат/Информация : Advanced Video Codec
Профиль формата : Main@L3
Параметр CABAC формата : Нет
Параметр ReFrames формата : 2 кадра
Идентификатор кодека : avc1
Идентификатор кодека/Информация : Advanced Video Coding
Продолжительность : 5 м. 25 с.
Битрейт : 1503 Кбит/сек
Ширина : 720 пикселей
Высота : 480 пикселей
Соотношение сторон : 16:9
Соотношение сторон в оригинале : 16:9
Режим частоты кадров : Постоянный
Частота кадров : 25,000 кадров/сек
Цветовое пространство : YUV
Субдискретизация насыщенности : 4:2:0
Битовая глубина : 8 бит
Тип развёртки : Прогрессивная
Бит/(Пиксели*Кадры) : 0.174
Размер потока : 58,3 Мбайт (84%)
Заголовок : Core Media Video
Язык : English
Дата кодирования : UTC 2016-09-19 15:29:17
Дата пометки : UTC 2016-09-19 15:29:18
Цветовой диапазон : Limited
Основные цвета : BT.709
Характеристики трансфера : BT.709
Коэффициенты матрицы : BT.709
Аудио
Идентификатор : 2
Формат : AAC
Формат/Информация : Advanced Audio Codec
Профиль формата : LC
Идентификатор кодека : 40
Продолжительность : 5 м. 25 с.
Продолжительность оригинала : 5 м. 25 с.
Вид битрейта : Переменный
Битрейт : 256 Кбит/сек
Максимальный битрейт : 350 Кбит/сек
Каналы : 2 канала
Расположение каналов : Front: L R
Частота : 48,0 КГц
Частота кадров : 46,875 кадров/сек (1024 spf)
Метод сжатия : С потерями
Размер потока : 9,72 Мбайт (14%)
Размер потока оригинала : 9,72 Мбайт (14%)
Заголовок : Core Media Audio
Язык : English
Дата кодирования : UTC 2016-09-19 15:29:17
Дата пометки : UTC 2016-09-19 15:29:18

Скриншоты

2016 - The Numbers: Jonny, Thom & a CR78

Качество: WEB-DL
Продолжительность: 00:05:44
Формат: MPEG-4
Видео: H.264, 720 x 480, 25,000 fps, 1470 Kbps, без анаморфа
Аудио: Русский (AAC Stereo, 256 Kbps, 48 KHz)

Отчёт MediaInfo

Общее
Полное имя : F:\Мои Раздачи\!iTunes\Radiohead - iTunes Video Collection\Music Videos\2016 - The Numbers_ Jonny, Thom & a CR78.m4v
Формат : MPEG-4
Идентификатор кодека : M4V (M4V /mp42/isom)
Размер файла : 72,4 Мбайт
Продолжительность : 5 м. 44 с.
Режим общего битрейта : Переменный
Общий поток : 1763 Кбит/сек
Название фильма : The Numbers: Jonny, Thom & a CR78
Альбом/Исполнитель : Radiohead
Исполнитель : Radiohead
Жанр : Альтернативная музыка
Тип содержимого : Music Video
Дата записи : UTC 2016-10-01 07:00:00
Дата кодирования : UTC 2016-09-27 16:25:03
Дата пометки : UTC 2016-09-27 16:25:03
Авторское право : ℗ 2016 XL Recordings Limited.
Обложка : Yes
Оценка : None
ownr : Евгений Степанов
Flavour : 8:480p
PurchaseDate : 2017-06-22 20:11:16
ITUNEXTC : ||0|
Видео
Идентификатор : 1
Формат : AVC
Формат/Информация : Advanced Video Codec
Профиль формата : Main@L3
Параметр CABAC формата : Нет
Параметр ReFrames формата : 2 кадра
Идентификатор кодека : avc1
Идентификатор кодека/Информация : Advanced Video Coding
Продолжительность : 5 м. 44 с.
Битрейт : 1482 Кбит/сек
Ширина : 720 пикселей
Высота : 480 пикселей
Соотношение сторон : 16:9
Соотношение сторон в оригинале : 16:9
Режим частоты кадров : Постоянный
Частота кадров : 25,000 кадров/сек
Цветовое пространство : YUV
Субдискретизация насыщенности : 4:2:0
Битовая глубина : 8 бит
Тип развёртки : Прогрессивная
Бит/(Пиксели*Кадры) : 0.172
Размер потока : 60,8 Мбайт (84%)
Заголовок : Core Media Video
Язык : English
Дата кодирования : UTC 2016-09-27 16:25:03
Дата пометки : UTC 2016-09-27 16:25:03
Цветовой диапазон : Limited
Основные цвета : BT.709
Характеристики трансфера : BT.709
Коэффициенты матрицы : BT.709
Аудио
Идентификатор : 2
Формат : AAC
Формат/Информация : Advanced Audio Codec
Профиль формата : LC
Идентификатор кодека : 40
Продолжительность : 5 м. 44 с.
Продолжительность оригинала : 5 м. 44 с.
Вид битрейта : Переменный
Битрейт : 256 Кбит/сек
Максимальный битрейт : 356 Кбит/сек
Каналы : 2 канала
Расположение каналов : Front: L R
Частота : 48,0 КГц
Частота кадров : 46,875 кадров/сек (1024 spf)
Метод сжатия : С потерями
Размер потока : 10,3 Мбайт (14%)
Размер потока оригинала : 10,3 Мбайт (14%)
Заголовок : Core Media Audio
Язык : English
Дата кодирования : UTC 2016-09-27 16:25:03
Дата пометки : UTC 2016-09-27 16:25:03

Скриншоты

2017 - I Promise

Качество: WEB-DL
Продолжительность: 00:05:53
Формат: MPEG-4
Видео: H.264, 720 x 480, 25,000 fps, 1470 Kbps, без анаморфа
Аудио: Русский (AAC Stereo, 256 Kbps, 48 KHz)

Отчёт MediaInfo

Общее
Полное имя : F:\Мои Раздачи\!iTunes\Radiohead - iTunes Video Collection\Music Videos\2017 - I Promise.m4v
Формат : MPEG-4
Идентификатор кодека : M4V (M4V /mp42/isom)
Размер файла : 52,2 Мбайт
Продолжительность : 4 м. 1 с.
Режим общего битрейта : Переменный
Общий поток : 1815 Кбит/сек
Название фильма : I Promise
Альбом : OK Computer OKNOTOK 1997 2017
Альбом/Исполнитель : Radiohead
Исполнитель : Radiohead
Жанр : Альтернативная музыка
Тип содержимого : Music Video
Дата записи : UTC 2017-06-02 07:00:00
Дата кодирования : UTC 2017-06-19 18:00:26
Дата пометки : UTC 2017-06-19 18:00:27
Обложка : Yes
Оценка : None
ownr : Евгений Степанов
Flavour : 8:480p
PurchaseDate : 2017-06-22 20:13:46
ITUNEXTC : ||0|
Видео
Идентификатор : 1
Формат : AVC
Формат/Информация : Advanced Video Codec
Профиль формата : Main@L3
Параметр CABAC формата : Нет
Параметр ReFrames формата : 2 кадра
Идентификатор кодека : avc1
Идентификатор кодека/Информация : Advanced Video Coding
Продолжительность : 4 м. 1 с.
Битрейт : 1529 Кбит/сек
Ширина : 720 пикселей
Высота : 480 пикселей
Соотношение сторон : 16:9
Соотношение сторон в оригинале : 16:9
Режим частоты кадров : Постоянный
Частота кадров : 25,000 кадров/сек
Цветовое пространство : YUV
Субдискретизация насыщенности : 4:2:0
Битовая глубина : 8 бит
Тип развёртки : Прогрессивная
Бит/(Пиксели*Кадры) : 0.177
Размер потока : 44,0 Мбайт (84%)
Заголовок : Core Media Video
Язык : English
Дата кодирования : UTC 2017-06-19 18:00:26
Дата пометки : UTC 2017-06-19 18:00:27
Цветовой диапазон : Limited
Основные цвета : BT.709
Характеристики трансфера : BT.709
Коэффициенты матрицы : BT.709
Аудио
Идентификатор : 2
Формат : AAC
Формат/Информация : Advanced Audio Codec
Профиль формата : LC
Идентификатор кодека : 40
Продолжительность : 4 м. 1 с.
Продолжительность оригинала : 4 м. 1 с.
Вид битрейта : Переменный
Битрейт : 256 Кбит/сек
Максимальный битрейт : 365 Кбит/сек
Каналы : 2 канала
Расположение каналов : Front: L R
Частота : 48,0 КГц
Частота кадров : 46,875 кадров/сек (1024 spf)
Метод сжатия : С потерями
Размер потока : 7,06 Мбайт (14%)
Размер потока оригинала : 7,06 Мбайт (14%)
Заголовок : Core Media Audio
Язык : English
Дата кодирования : UTC 2017-06-19 18:00:26
Дата пометки : UTC 2017-06-19 18:00:27

Скриншоты

2017 - Man of War

Качество: WEB-DL
Продолжительность: 00:04:29
Формат: MPEG-4
Видео: H.264, 720 x 480, 25,000 fps, 1512 Kbps, без анаморфа
Аудио: Русский (AAC Stereo, 256 Kbps, 48 KHz)

Отчёт MediaInfo

Общее
Полное имя : F:\Мои Раздачи\!iTunes\Radiohead - iTunes Video Collection (The King of Limbs - Live from the Basement + Music Videos)\Music Videos\2017 - Man of War.m4v
Формат : MPEG-4
Идентификатор кодека : M4V (M4V /mp42/isom)
Размер файла : 57,6 Мбайт
Продолжительность : 4 м. 29 с.
Режим общего битрейта : Переменный
Общий поток : 1796 Кбит/сек
Название фильма : Man of War
Альбом : OK Computer OKNOTOK 1997 2017
Альбом/Исполнитель : Radiohead
Исполнитель : Radiohead
Жанр : Альтернативная музыка
Тип содержимого : Music Video
Дата записи : UTC 2017-06-22 07:00:00
Дата кодирования : UTC 2017-06-24 17:03:27
Дата пометки : UTC 2017-06-24 17:03:28
Обложка : Yes
Оценка : None
ownr : Евгений Степанов
Flavour : 8:480p
PurchaseDate : 2017-06-25 11:35:49
ITUNEXTC : ||0|
Видео
Идентификатор : 1
Формат : AVC
Формат/Информация : Advanced Video Codec
Профиль формата : Main@L3
Параметр CABAC формата : Нет
Параметр ReFrames формата : 2 кадра
Идентификатор кодека : avc1
Идентификатор кодека/Информация : Advanced Video Coding
Продолжительность : 4 м. 29 с.
Битрейт : 1512 Кбит/сек
Ширина : 720 пикселей
Высота : 480 пикселей
Соотношение сторон : 16:9
Соотношение сторон в оригинале : 16:9
Режим частоты кадров : Постоянный
Частота кадров : 23,976 (24000/1001) кадра/сек
Цветовое пространство : YUV
Субдискретизация насыщенности : 4:2:0
Битовая глубина : 8 бит
Тип развёртки : Прогрессивная
Бит/(Пиксели*Кадры) : 0.182
Размер потока : 48,5 Мбайт (84%)
Заголовок : Core Media Video
Язык : English
Дата кодирования : UTC 2017-06-24 17:03:27
Дата пометки : UTC 2017-06-24 17:03:28
Цветовой диапазон : Limited
Основные цвета : BT.709
Характеристики трансфера : BT.709
Коэффициенты матрицы : BT.709
Аудио
Идентификатор : 2
Формат : AAC
Формат/Информация : Advanced Audio Codec
Профиль формата : LC
Идентификатор кодека : 40
Продолжительность : 4 м. 29 с.
Продолжительность оригинала : 4 м. 29 с.
Вид битрейта : Переменный
Битрейт : 256 Кбит/сек
Максимальный битрейт : 321 Кбит/сек
Каналы : 2 канала
Расположение каналов : Front: L R
Частота : 48,0 КГц
Частота кадров : 46,875 кадров/сек (1024 spf)
Метод сжатия : С потерями
Размер потока : 7,96 Мбайт (14%)
Размер потока оригинала : 7,96 Мбайт (14%)
Заголовок : Core Media Audio
Язык : English
Дата кодирования : UTC 2017-06-24 17:03:27
Дата пометки : UTC 2017-06-24 17:03:28

Скриншоты

Вы не можете начинать темы
Вы не можете отвечать на сообщения
Вы не можете редактировать свои сообщения
Вы не можете удалять свои сообщения
Вы не можете голосовать в опросах
Вы не можете прикреплять файлы к сообщениям
Вы можете скачивать файлы
!ВНИМАНИЕ!

Сайт не предоставляет электронные версии произведений, а занимается лишь коллекционированием и каталогизацией ссылок, присылаемых и публикуемых на форуме нашими читателями. Если вы являетесь правообладателем какого-либо представленного материала и не желаете, чтобы ссылка на него находилась в нашем каталоге, свяжитесь с нами, и мы незамедлительно удалим ее. Файлы для обмена на трекере предоставлены пользователями сайта, и администрация не несет ответственности за их содержание. Просьба не заливать файлы, защищенные авторскими правами, а также файлы нелегального содержания!

Искали программы, игры, дополнения, музыка mp3, аниме, аудио книги, журналы? Добро пожаловать на свободный торрент трекер Torrents, у нас можно скачать бесплатно, без смс и регистрации и прочих ограничений лучшие, отборные сборки программ, игр. Скачать торрентом не составит труда даже не опытному пользователю. Раздачи ежедневно обновляются, только лучшие и качественные раздачи, подробные описания и скриншоты. Огромная коллекция программ для работы со звуком, графикой, дизайном, а так же множество плагинов и инструментов к ним с подробной инструкцией и рекомендациями. Прошивки для навигаторов, карты. Разнообразные игры, для Windows, Linux. В коллекцие есть и старые игры любых жанров, Rpg, Action, Shooter, strategy Множество дополнений, модификаций, сценариев для популярных игр в жанре экш, рпг, гонки, стратегии, логические игры. Множество аддонов и сценариев для Microsoft Flight Simulator Большая коллекция книг, учебников. Если нет возможности купить печатное издание - смело скачивайте цифровую версию книги или, быть может, журнала. Не любите читать - можно загрузить бесплатно аудикнигу. Для веб дизайнеров и программистов так же найдется множество специализированного софта, таких как: редакторы с подсветкой, среды программирования, компоненты, системы управления базами данных, разнообразные скрипты и шаблоны. Не так давно у нас появился материал для автолюбителей и владельцев мото - оригинальные и неоригинальные каталоги запчастей, книги и журналы по ремонту и обслуживанию, видеоуроки, статьи по чип тюнингу, прошивкам. Процедура получения контента элементарная, достаточно просто скачать торрент файл и добавить его в загрузку в вашем торрент клиенте. Если у вас нет специального торрент клиента, вы можете его скачать у нас.