Arms and Sleepers - Preventing Lead Poisoning in Young Children: A DVD by Arms and Sleepers [2011/2014|Ambient / Trip-Hop|m4v Web-file] 

Цитировать
Arms and Sleepers / Preventing lead poisoning in young children: A DVD by Arms and Sleepers Жанр: Ambient / Trip-Hop
Год издания: 2011/2014
Продолжительность: 00:49:07
Контейнер: m4v
Видео кодек: H264-MPEG-4 AVC (part10) (avc1)
Аудио кодек: AAC
Видео: MPEG-4 (H264) 4:3 640x432 px 29,970 fps 1 381 Kbps
Аудио: AAC 48.0 KHz 2 channels Variable (166-264) Kbps
Источник: AAS shop

Описание

Цифровая версия официального DVD Preventing lead poisoning in young children. DVD представляет собой сборник видеоинстоляций используемых ребятами на концертах и клипов.
Выпущен лимитированным тиражом (100 шт) в 2011 году, цифровая версия стала доступна в 2014 году.

Треклист

01. I was a climber | dir. by Michael Nelson
02. Butterflycatcher | dir. by Dado Ramadani & Arms and Sleepers
03. The Architekt | dir. by Ben Andrews
04. In The Empire Of Builders | dir. by Dado Ramadani
05. Matador Promotional Video | dir. by David Altobelli
06. Simone | dir. by Alex Zakharik
07. Dear Charles, My Muse, Asleep or Dead | dir. by Dado Ramadani & Arms and Sleepers
08. The Motorist | dir. by Dado Ramadani
09. Runner Misplaced | dir. by Dado Ramadani
10. I am a strange loop | dir. by Dado Ramadani & Arms and Sleepers
11. The Architekt | dir. by Javier Benia
12. Lautlos | dir. by Dado Ramadani & Arms and Sleepers
13. Black Paris 86 | dir. by Dado Ramadani
14. 2011 Promotional Video #1 | dir. by Dado Ramadani
15. 2011 Promotional Video #2 | dir. by Dado Ramadani

Отчёт MediaInfo

General
Complete name : F:\Мои Раздачи\Arms and Sleepers - Preventing lead poisoning in young children DVD\AAS - PLPIYC.m4v
Format : MPEG-4
Format profile : Base Media / Version 2
Codec ID : mp42
File size : 545 MiB
Duration : 49mn 7s
Overall bit rate mode : Variable
Overall bit rate : 1 551 Kbps
Encoded date : UTC 2014-01-06 22:51:01
Tagged date : UTC 2014-01-06 22:59:19
Writing application : HandBrake 0.9.9 2013051800
Video
ID : 1
Format : AVC
Format/Info : Advanced Video Codec
Format profile : Main@L4.0
Format settings, CABAC : Yes
Format settings, ReFrames : 4 frames
Codec ID : avc1
Codec ID/Info : Advanced Video Coding
Duration : 49mn 7s
Bit rate : 1 381 Kbps
Width : 640 pixels
Height : 432 pixels
Display aspect ratio : 4:3
Frame rate mode : Variable
Frame rate : 29.970 fps
Minimum frame rate : 9.990 fps
Maximum frame rate : 29.970 fps
Color space : YUV
Chroma subsampling : 4:2:0
Bit depth : 8 bits
Scan type : Progressive
Bits/(Pixel*Frame) : 0.167
Stream size : 485 MiB (89%)
Writing library : x264 core 130 r2273 b3065e6
Encoding settings : cabac=1 / ref=1 / deblock=1:0:0 / analyse=0x1:0x111 / me=hex / subme=2 / psy=1 / psy_rd=1.00:0.00 / mixed_ref=0 / me_range=16 / chroma_me=1 / trellis=0 / 8x8dct=0 / cqm=0 / deadzone=21,11 / fast_pskip=1 / chroma_qp_offset=0 / threads=6 / lookahead_threads=2 / sliced_threads=0 / nr=0 / decimate=1 / interlaced=0 / bluray_compat=0 / constrained_intra=0 / bframes=3 / b_pyramid=2 / b_adapt=1 / b_bias=0 / direct=1 / weightb=1 / open_gop=0 / weightp=1 / keyint=300 / keyint_min=30 / scenecut=40 / intra_refresh=0 / rc_lookahead=10 / rc=crf / mbtree=1 / crf=20.0 / qcomp=0.60 / qpmin=0 / qpmax=69 / qpstep=4 / vbv_maxrate=20000 / vbv_bufsize=25000 / crf_max=0.0 / nal_hrd=none / ip_ratio=1.40 / aq=1:1.00
Encoded date : UTC 2014-01-06 22:51:01
Tagged date : UTC 2014-01-06 22:59:19
Color primaries : BT.601 NTSC
Transfer characteristics : BT.709
Matrix coefficients : BT.601
Audio
ID : 2
Format : AAC
Format/Info : Advanced Audio Codec
Format profile : LC
Codec ID : 40
Duration : 49mn 7s
Bit rate mode : Variable
Bit rate : 166 Kbps
Maximum bit rate : 264 Kbps
Channel(s) : 2 channels
Channel positions : Front: L R
Sampling rate : 48.0 KHz
Compression mode : Lossy
Stream size : 58.2 MiB (11%)
Language : English
Encoded date : UTC 2014-01-06 22:51:01
Tagged date : UTC 2014-01-06 22:59:19
Menu
ID : 3
Codec ID : text
Duration : 49mn 7s
Encoded date : UTC 2014-01-06 22:51:01
Tagged date : UTC 2014-01-06 22:59:19
Bit rate mode : VBR

Скриншоты

Arms and Sleepers
Вы не можете начинать темы
Вы не можете отвечать на сообщения
Вы не можете редактировать свои сообщения
Вы не можете удалять свои сообщения
Вы не можете голосовать в опросах
Вы не можете прикреплять файлы к сообщениям
Вы можете скачивать файлы
!ВНИМАНИЕ!

Сайт не предоставляет электронные версии произведений, а занимается лишь коллекционированием и каталогизацией ссылок, присылаемых и публикуемых на форуме нашими читателями. Если вы являетесь правообладателем какого-либо представленного материала и не желаете, чтобы ссылка на него находилась в нашем каталоге, свяжитесь с нами, и мы незамедлительно удалим ее. Файлы для обмена на трекере предоставлены пользователями сайта, и администрация не несет ответственности за их содержание. Просьба не заливать файлы, защищенные авторскими правами, а также файлы нелегального содержания!

Искали программы, игры, дополнения, музыка mp3, аниме, аудио книги, журналы? Добро пожаловать на свободный торрент трекер Torrents, у нас можно скачать бесплатно, без смс и регистрации и прочих ограничений лучшие, отборные сборки программ, игр. Скачать торрентом не составит труда даже не опытному пользователю. Раздачи ежедневно обновляются, только лучшие и качественные раздачи, подробные описания и скриншоты. Огромная коллекция программ для работы со звуком, графикой, дизайном, а так же множество плагинов и инструментов к ним с подробной инструкцией и рекомендациями. Прошивки для навигаторов, карты. Разнообразные игры, для Windows, Linux. В коллекцие есть и старые игры любых жанров, Rpg, Action, Shooter, strategy Множество дополнений, модификаций, сценариев для популярных игр в жанре экш, рпг, гонки, стратегии, логические игры. Множество аддонов и сценариев для Microsoft Flight Simulator Большая коллекция книг, учебников. Если нет возможности купить печатное издание - смело скачивайте цифровую версию книги или, быть может, журнала. Не любите читать - можно загрузить бесплатно аудикнигу. Для веб дизайнеров и программистов так же найдется множество специализированного софта, таких как: редакторы с подсветкой, среды программирования, компоненты, системы управления базами данных, разнообразные скрипты и шаблоны. Не так давно у нас появился материал для автолюбителей и владельцев мото - оригинальные и неоригинальные каталоги запчастей, книги и журналы по ремонту и обслуживанию, видеоуроки, статьи по чип тюнингу, прошивкам. Процедура получения контента элементарная, достаточно просто скачать торрент файл и добавить его в загрузку в вашем торрент клиенте. Если у вас нет специального торрент клиента, вы можете его скачать у нас.