(Drum n Bass, Industrial, Breakbeat, Techno) [CD] DJ Acucrack - The Mutants Are Coming... And I Believe They Are of Sound! - 2000, FLAC (tracks+.cue), lossless 

Цитировать
DJ Acucrack / The Mutants Are Coming... And I Believe They Are of Sound!
Жанр: Drum n Bass, Industrial, Breakbeat, Techno
Носитель: CD
Страна-производитель диска (релиза): US
Год издания: 2000
Издатель (лейбл): E-Magine Entertainment ‎
Номер по каталогу: EMA 61048-2
Страна исполнителя (группы): US
Аудиокодек: FLAC (*.flac)
Тип рипа: tracks+.cue
Битрейт аудио: lossless
Продолжительность: 01:02:38
Источник (релизер): Usenet
Наличие сканов в содержимом раздачи: нет
Треклист:
1 Hi 420 1:01
2 Allegra 420 6:17
3 Swollen With 420 Glee 6:09
4 Lust in Space 420 4:42
5 Nation State 420 9:49
6 Bitch Universal 420 7:38
7 Road Speed Governor 65 2:22
8 Get In Me 420 6:05
9 You're Not the Fastest 420 Ship... 5:25
10 Strobe 420 3:11
11 420 Scientists Playing God 3:59
12 Time For You To Leave... It's 4:20 5:54

Лог создания рипа

X Lossless Decoder version 20090930 (110.0)
XLD extraction logfile from 2009-10-03 20:19:59 -0400
DJ? Acucrack / The Mutants are Coming... and I Believe They are of Sound!
Used drive : HL-DT-ST DVDRW GS23N (revision SB00)
Use cdparanoia mode : YES (CDParanoia III 10.2 engine)Disable audio cache : OK for the drive with cache less than 2750KBMake use of C2 pointers : NORead offset correction : 667Max retry count : 100
TOC of the extracted CD Track | Start | Length | Start sector | End sector --------------------------------------------------------- 1 | 00:00:00 | 01:01:12 | 0 | 4586 2 | 01:01:12 | 06:17:43 | 4587 | 32904 3 | 07:18:55 | 06:09:35 | 32905 | 60614 4 | 13:28:15 | 04:42:67 | 60615 | 81831 5 | 18:11:07 | 09:49:65 | 81832 | 126071 6 | 28:00:72 | 07:38:00 | 126072 | 160421 7 | 35:38:72 | 02:22:60 | 160422 | 171131 8 | 38:01:57 | 06:05:40 | 171132 | 198546 9 | 44:07:22 | 05:25:35 | 198547 | 222956 10 | 49:32:57 | 03:11:38 | 222957 | 237319 11 | 52:44:20 | 03:59:42 | 237320 | 255286 12 | 56:43:62 | 05:55:00 | 255287 | 281911
All Tracks Album gain : -10.80 dB Peak : 0.997192
Track 01 Filename : /Users/mike/Music/XLD/01 - Hi.flac /Users/mike/Music/XLD/01 - Hi.mp3 Track gain : -6.51 dB Peak : 0.996521 CRC32 hash (test run) : C1993A30 CRC32 hash : C1993A30 CRC32 hash (skip zero) : F101AE9E AccurateRip signature : 49EE13EE ->Track not present in AccurateRip database. Statistics Read error : 0 Skipped (treated as error) : 0 Edge jitter error (maybe fixed) : 0 Atom jitter error (maybe fixed) : 0 Drift error (maybe fixed) : 0 Dropped bytes error (maybe fixed) : 0 Duplicated bytes error (maybe fixed) : 0 Inconsistency in error sectors : 0
Track 02 Filename : /Users/mike/Music/XLD/02 - Allegra.flac /Users/mike/Music/XLD/02 - Allegra.mp3 Track gain : -9.72 dB Peak : 0.995880 CRC32 hash (test run) : 1D40AAE1 CRC32 hash : 1D40AAE1 CRC32 hash (skip zero) : 8E079FE9 AccurateRip signature : C2D713A9 ->Track not present in AccurateRip database. Statistics Read error : 0 Skipped (treated as error) : 0 Edge jitter error (maybe fixed) : 0 Atom jitter error (maybe fixed) : 0 Drift error (maybe fixed) : 0 Dropped bytes error (maybe fixed) : 0 Duplicated bytes error (maybe fixed) : 0 Inconsistency in error sectors : 0
Track 03 Filename : /Users/mike/Music/XLD/03 - Swollen with Glee.flac /Users/mike/Music/XLD/03 - Swollen with Glee.mp3 Track gain : -10.36 dB Peak : 0.996643 CRC32 hash (test run) : 4B60F41F CRC32 hash : 4B60F41F CRC32 hash (skip zero) : 85E40A66 AccurateRip signature : 52472FFC ->Track not present in AccurateRip database. Statistics Read error : 0 Skipped (treated as error) : 0 Edge jitter error (maybe fixed) : 0 Atom jitter error (maybe fixed) : 0 Drift error (maybe fixed) : 0 Dropped bytes error (maybe fixed) : 0 Duplicated bytes error (maybe fixed) : 0 Inconsistency in error sectors : 0
Track 04 Filename : /Users/mike/Music/XLD/04 - Lust in Space.flac /Users/mike/Music/XLD/04 - Lust in Space.mp3 Track gain : -10.50 dB Peak : 0.996643 CRC32 hash (test run) : 9710AC76 CRC32 hash : 9710AC76 CRC32 hash (skip zero) : 922CEAAE AccurateRip signature : D52BFEF8 ->Track not present in AccurateRip database. Statistics Read error : 0 Skipped (treated as error) : 0 Edge jitter error (maybe fixed) : 0 Atom jitter error (maybe fixed) : 0 Drift error (maybe fixed) : 0 Dropped bytes error (maybe fixed) : 0 Duplicated bytes error (maybe fixed) : 0 Inconsistency in error sectors : 0
Track 05 Filename : /Users/mike/Music/XLD/05 - Nation State.flac /Users/mike/Music/XLD/05 - Nation State.mp3 Track gain : -11.08 dB Peak : 0.996704 CRC32 hash (test run) : 4FBF39E5 CRC32 hash : 4FBF39E5 CRC32 hash (skip zero) : 90826E60 AccurateRip signature : 3B84F7AF ->Track not present in AccurateRip database. Statistics Read error : 0 Skipped (treated as error) : 0 Edge jitter error (maybe fixed) : 0 Atom jitter error (maybe fixed) : 0 Drift error (maybe fixed) : 0 Dropped bytes error (maybe fixed) : 0 Duplicated bytes error (maybe fixed) : 0 Inconsistency in error sectors : 0
Track 06 Filename : /Users/mike/Music/XLD/06 - Bitch Universal.flac /Users/mike/Music/XLD/06 - Bitch Universal.mp3 Track gain : -8.85 dB Peak : 0.959473 CRC32 hash (test run) : D4C29998 CRC32 hash : D4C29998 CRC32 hash (skip zero) : 9A0F23E6 AccurateRip signature : 5AC9B4D1 ->Track not present in AccurateRip database. Statistics Read error : 0 Skipped (treated as error) : 0 Edge jitter error (maybe fixed) : 0 Atom jitter error (maybe fixed) : 0 Drift error (maybe fixed) : 0 Dropped bytes error (maybe fixed) : 0 Duplicated bytes error (maybe fixed) : 0 Inconsistency in error sectors : 0
Track 07 Filename : /Users/mike/Music/XLD/07 - Road Speed Governor.flac /Users/mike/Music/XLD/07 - Road Speed Governor.mp3 Track gain : -10.77 dB Peak : 0.955841 CRC32 hash (test run) : D142BFAD CRC32 hash : D142BFAD CRC32 hash (skip zero) : B69D84AE AccurateRip signature : 179FFD53 ->Track not present in AccurateRip database. Statistics Read error : 0 Skipped (treated as error) : 0 Edge jitter error (maybe fixed) : 0 Atom jitter error (maybe fixed) : 0 Drift error (maybe fixed) : 0 Dropped bytes error (maybe fixed) : 0 Duplicated bytes error (maybe fixed) : 0 Inconsistency in error sectors : 0
Track 08 Filename : /Users/mike/Music/XLD/08 - Get in Me.flac /Users/mike/Music/XLD/08 - Get in Me.mp3 Track gain : -10.32 dB Peak : 0.997192 CRC32 hash (test run) : 7C21B552 CRC32 hash : 7C21B552 CRC32 hash (skip zero) : 41ECB800 AccurateRip signature : 83313260 ->Track not present in AccurateRip database. Statistics Read error : 0 Skipped (treated as error) : 0 Edge jitter error (maybe fixed) : 0 Atom jitter error (maybe fixed) : 0 Drift error (maybe fixed) : 0 Dropped bytes error (maybe fixed) : 0 Duplicated bytes error (maybe fixed) : 0 Inconsistency in error sectors : 0
Track 09 Filename : /Users/mike/Music/XLD/09 - You're Not the Fastest Ship....flac /Users/mike/Music/XLD/09 - You're Not the Fastest Ship....mp3 Track gain : -10.43 dB Peak : 0.996735 CRC32 hash (test run) : 3DC8AF0E CRC32 hash : 3DC8AF0E CRC32 hash (skip zero) : FD016778 AccurateRip signature : D1871089 ->Track not present in AccurateRip database. Statistics Read error : 0 Skipped (treated as error) : 0 Edge jitter error (maybe fixed) : 0 Atom jitter error (maybe fixed) : 0 Drift error (maybe fixed) : 0 Dropped bytes error (maybe fixed) : 0 Duplicated bytes error (maybe fixed) : 0 Inconsistency in error sectors : 0
Track 10 Filename : /Users/mike/Music/XLD/10 - Strobe.flac /Users/mike/Music/XLD/10 - Strobe.mp3 Track gain : -9.15 dB Peak : 0.996643 CRC32 hash (test run) : 10625C4B CRC32 hash : 10625C4B CRC32 hash (skip zero) : D97AF2B1 AccurateRip signature : D0795693 ->Track not present in AccurateRip database. Statistics Read error : 0 Skipped (treated as error) : 0 Edge jitter error (maybe fixed) : 0 Atom jitter error (maybe fixed) : 0 Drift error (maybe fixed) : 0 Dropped bytes error (maybe fixed) : 0 Duplicated bytes error (maybe fixed) : 0 Inconsistency in error sectors : 0
Track 11 Filename : /Users/mike/Music/XLD/11 - Scientists Playing God.flac /Users/mike/Music/XLD/11 - Scientists Playing God.mp3 Track gain : -9.24 dB Peak : 0.996582 CRC32 hash (test run) : 46D34579 CRC32 hash : 46D34579 CRC32 hash (skip zero) : 96688A8B AccurateRip signature : EBF560DB ->Track not present in AccurateRip database. Statistics Read error : 0 Skipped (treated as error) : 0 Edge jitter error (maybe fixed) : 0 Atom jitter error (maybe fixed) : 0 Drift error (maybe fixed) : 0 Dropped bytes error (maybe fixed) : 0 Duplicated bytes error (maybe fixed) : 0 Inconsistency in error sectors : 0
Track 12 Filename : /Users/mike/Music/XLD/12 - Time for You to Leave.flac /Users/mike/Music/XLD/12 - Time for You to Leave.mp3 Track gain : -12.88 dB Peak : 0.996521 CRC32 hash (test run) : 5455C6B8 CRC32 hash : 5455C6B8 CRC32 hash (skip zero) : 0E3C6CDA AccurateRip signature : 04EB1AB9 ->Track not present in AccurateRip database. Statistics Read error : 0 Skipped (treated as error) : 0 Edge jitter error (maybe fixed) : 0 Atom jitter error (maybe fixed) : 0 Drift error (maybe fixed) : 0 Dropped bytes error (maybe fixed) : 0 Duplicated bytes error (maybe fixed) : 0 Inconsistency in error sectors : 0
No errors occurred
End of status report

Содержание индексной карты (.CUE)

TITLE "The Mutants are Coming... and I Believe They are of Sound!"PERFORMER "DJ? Acucrack"REM REPLAYGAIN_ALBUM_GAIN -10.80 dBREM REPLAYGAIN_ALBUM_PEAK 0.997192FILE "01 - Hi.wav" WAVE  TRACK 01 AUDIO    TITLE "Hi"    REM REPLAYGAIN_TRACK_GAIN -6.51 dB    REM REPLAYGAIN_TRACK_PEAK 0.996521    INDEX 01 00:00:00FILE "02 - Allegra.wav" WAVE  TRACK 02 AUDIO    TITLE "Allegra"    REM REPLAYGAIN_TRACK_GAIN -9.72 dB    REM REPLAYGAIN_TRACK_PEAK 0.995880    INDEX 01 00:00:00FILE "03 - Swollen with Glee.wav" WAVE  TRACK 03 AUDIO    TITLE "Swollen with Glee"    REM REPLAYGAIN_TRACK_GAIN -10.36 dB    REM REPLAYGAIN_TRACK_PEAK 0.996643    INDEX 01 00:00:00  TRACK 04 AUDIO    TITLE "Lust in Space"    REM REPLAYGAIN_TRACK_GAIN -10.50 dB    REM REPLAYGAIN_TRACK_PEAK 0.996643    INDEX 00 06:08:45FILE "04 - Lust in Space.wav" WAVE    INDEX 01 00:00:00FILE "05 - Nation State.wav" WAVE  TRACK 05 AUDIO    TITLE "Nation State"    REM REPLAYGAIN_TRACK_GAIN -11.08 dB    REM REPLAYGAIN_TRACK_PEAK 0.996704    INDEX 01 00:00:00FILE "06 - Bitch Universal.wav" WAVE  TRACK 06 AUDIO    TITLE "Bitch Universal"    REM REPLAYGAIN_TRACK_GAIN -8.85 dB    REM REPLAYGAIN_TRACK_PEAK 0.959473    INDEX 01 00:00:00FILE "07 - Road Speed Governor.wav" WAVE  TRACK 07 AUDIO    TITLE "Road Speed Governor"    REM REPLAYGAIN_TRACK_GAIN -10.77 dB    REM REPLAYGAIN_TRACK_PEAK 0.955841    INDEX 01 00:00:00FILE "08 - Get in Me.wav" WAVE  TRACK 08 AUDIO    TITLE "Get in Me"    REM REPLAYGAIN_TRACK_GAIN -10.32 dB    REM REPLAYGAIN_TRACK_PEAK 0.997192    INDEX 01 00:00:00FILE "09 - You're Not the Fastest Ship....wav" WAVE  TRACK 09 AUDIO    TITLE "You're Not the Fastest Ship..."    REM REPLAYGAIN_TRACK_GAIN -10.43 dB    REM REPLAYGAIN_TRACK_PEAK 0.996735    INDEX 01 00:00:00FILE "10 - Strobe.wav" WAVE  TRACK 10 AUDIO    TITLE "Strobe"    REM REPLAYGAIN_TRACK_GAIN -9.15 dB    REM REPLAYGAIN_TRACK_PEAK 0.996643    INDEX 01 00:00:00FILE "11 - Scientists Playing God.wav" WAVE  TRACK 11 AUDIO    TITLE "Scientists Playing God"    REM REPLAYGAIN_TRACK_GAIN -9.24 dB    REM REPLAYGAIN_TRACK_PEAK 0.996582    INDEX 01 00:00:00FILE "12 - Time for You to Leave.wav" WAVE  TRACK 12 AUDIO    TITLE "Time for You to Leave"    REM REPLAYGAIN_TRACK_GAIN -12.88 dB    REM REPLAYGAIN_TRACK_PEAK 0.996521    INDEX 01 00:00:00
Вы не можете начинать темы
Вы не можете отвечать на сообщения
Вы не можете редактировать свои сообщения
Вы не можете удалять свои сообщения
Вы не можете голосовать в опросах
Вы не можете прикреплять файлы к сообщениям
Вы можете скачивать файлы
!ВНИМАНИЕ!

Сайт не предоставляет электронные версии произведений, а занимается лишь коллекционированием и каталогизацией ссылок, присылаемых и публикуемых на форуме нашими читателями. Если вы являетесь правообладателем какого-либо представленного материала и не желаете, чтобы ссылка на него находилась в нашем каталоге, свяжитесь с нами, и мы незамедлительно удалим ее. Файлы для обмена на трекере предоставлены пользователями сайта, и администрация не несет ответственности за их содержание. Просьба не заливать файлы, защищенные авторскими правами, а также файлы нелегального содержания!

Искали программы, игры, дополнения, музыка mp3, аниме, аудио книги, журналы? Добро пожаловать на свободный торрент трекер Torrents, у нас можно скачать бесплатно, без смс и регистрации и прочих ограничений лучшие, отборные сборки программ, игр. Скачать торрентом не составит труда даже не опытному пользователю. Раздачи ежедневно обновляются, только лучшие и качественные раздачи, подробные описания и скриншоты. Огромная коллекция программ для работы со звуком, графикой, дизайном, а так же множество плагинов и инструментов к ним с подробной инструкцией и рекомендациями. Прошивки для навигаторов, карты. Разнообразные игры, для Windows, Linux. В коллекцие есть и старые игры любых жанров, Rpg, Action, Shooter, strategy Множество дополнений, модификаций, сценариев для популярных игр в жанре экш, рпг, гонки, стратегии, логические игры. Множество аддонов и сценариев для Microsoft Flight Simulator Большая коллекция книг, учебников. Если нет возможности купить печатное издание - смело скачивайте цифровую версию книги или, быть может, журнала. Не любите читать - можно загрузить бесплатно аудикнигу. Для веб дизайнеров и программистов так же найдется множество специализированного софта, таких как: редакторы с подсветкой, среды программирования, компоненты, системы управления базами данных, разнообразные скрипты и шаблоны. Не так давно у нас появился материал для автолюбителей и владельцев мото - оригинальные и неоригинальные каталоги запчастей, книги и журналы по ремонту и обслуживанию, видеоуроки, статьи по чип тюнингу, прошивкам. Процедура получения контента элементарная, достаточно просто скачать торрент файл и добавить его в загрузку в вашем торрент клиенте. Если у вас нет специального торрент клиента, вы можете его скачать у нас.